<?xml version="1.0" standalone="no"?>
<!DOCTYPE svg PUBLIC "-//W3C//DTD SVG 1.1//EN" "http://www.w3.org/Graphics/SVG/1.1/DTD/svg11.dtd">
<svg xmlns="http://www.w3.org/2000/svg">
<defs >
<font id="Caveat" horiz-adv-x="445" ><font-face
    font-family="Caveat"
    units-per-em="1000"
    panose-1="0 0 0 0 0 0 0 0 0 0"
    ascent="960"
    descent="-300"
    alphabetic="0" />
<glyph unicode=" " horiz-adv-x="242" />
<glyph unicode="!" horiz-adv-x="210" d="M197 170Q169 165 160 197T165 285Q171 297 175 308T179 327Q183 340 189 357T203 390T213 411Q217 411 221 418T226 432Q226 440 229 450T237 464Q237 469 241 475T245 485Q245 489 247 492T250 499Q259 515 273 546T302
613T327 675T337 708Q339 716 343 720T355 722Q359 725 363 725T371 726Q371 726 374 722T385 710Q393 703 394 694T395 673Q394 654 381 630T352 577Q342 558 333 541T323 520Q323 516 319 508T310 488Q304 478 297 464T285 439T279 424Q278 420 277 416T271 408Q267
408 267 403T266 397Q266 393 262 379T247 344Q228 291 220 260T210 206Q208 182 207 178T197 170ZM143 10Q124 3 112 3T84 15Q65 33 71 51T104 88Q122 99 130 100T157 93Q187 74 184 51T143 10Z" />
<glyph unicode="&quot;" horiz-adv-x="237" d="M199 440Q189 439 186 440T176 447Q175 454 178 460T186 473Q198 493 213 520T234 563Q236 574 240 591T245 628Q245 633 245 640T249 652T257 655Q266 651 276 646T293 633T298 615Q296 591 288 571T274 530Q268
508 254 489T223 450Q224 446 217 445T199 440ZM319 440Q309 439 306 440T296 447Q295 454 298 460T306 473Q318 493 333 520T354 563Q356 574 360 591T365 628Q365 633 365 640T369 652T377 655Q386 651 396 646T413 633T418 615Q416 591 408 571T394 530Q388
508 374 489T343 450Q344 446 337 445T319 440Z" />
<glyph unicode="#" horiz-adv-x="559" d="M389 -140Q370 -145 359 -132T346 -92T351 -28Q356 -16 359 -5T362 14Q364 22 372 49T391 113T414 184T434 244T445 272Q449 272 452 279T455 293Q455 301 458 311T466 325Q466 330 468 336T471 347Q471 351 473 355T476
363Q482 374 494 404T523 476T557 562T589 647T613 713T622 743Q622 751 626 755T638 759Q641 762 645 763T654 764Q654 764 658 760T670 748Q678 741 679 732T681 711Q681 698 678 688T666 659T638 600Q635 592 626 572T607 527T586 479T569 439T562 421Q562 417
559 409T551 389Q547 381 540 366T526 333T513 303T508 288Q508 284 508 280T503 272Q499 272 499 267T498 261Q498 251 482 208Q475 186 465 152T444 80T422 5T406 -58T399 -97Q399 -121 398 -128T389 -140ZM146 178Q140 178 131 178T111 183Q96 183 91 186T82
197Q71 212 80 217T126 227Q137 230 169 232T245 235T338 238T432 239T511 240T558 241Q584 241 593 239T613 226Q628 211 624 198T597 188Q590 187 571 186T534 183Q530 183 503 183T436 182T349 181T260 180T187 179T146 178ZM169 -140Q150 -145 139 -132T125
-92T131 -28Q136 -16 139 -5T142 14Q144 22 152 49T171 113T194 184T214 244T225 272Q229 272 232 279T235 293Q235 301 238 311T246 325Q246 330 248 336T251 347Q251 351 253 355T256 363Q262 374 274 404T303 476T337 562T369 647T393 713T402 743Q402 751 406
755T418 759Q421 762 425 763T434 764Q434 764 438 760T450 748Q458 741 459 732T461 711Q461 698 458 688T446 659T418 600Q415 592 406 572T387 527T366 479T349 439T342 421Q342 417 339 409T331 389Q327 381 320 366T306 333T293 303T288 288Q288 284 288 280T283
272Q279 272 279 267T278 261Q278 251 262 208Q255 186 245 152T224 80T202 5T186 -58T179 -97Q179 -121 178 -128T169 -140ZM207 378Q201 378 192 378T172 383Q157 383 152 386T143 397Q132 412 141 417T187 427Q198 430 230 432T306 435T399 438T493 439T572
440T619 441Q645 441 654 439T674 426Q689 411 685 398T658 388Q651 387 632 386T595 383Q591 383 564 383T497 382T410 381T321 380T248 379T207 378Z" />
<glyph unicode="$" horiz-adv-x="450" d="M178 -124Q150 -130 148 -98T161 -11Q170 2 173 14T178 33Q181 41 192 67T218 127T247 194T273 251T286 278Q288 278 289 279T293 282T296 287T299 293T301 299Q304 319 312 331T328 363Q335 374 350 403T385 473T425
556T463 637T492 700T503 730Q504 733 505 735T507 738T510 741T514 742T518 743T523 743Q529 749 539 745Q539 745 542 742T553 731Q558 722 559 713T560 692Q558 679 553 670T537 642T505 586Q501 579 490 560T466 517T440 470T419 432T411 415Q411 413 410 410T407
404T402 395T395 384Q391 376 383 361T366 330T351 302T344 288Q344 286 343 283T340 278T335 272Q331 272 330 267T329 261Q329 259 327 252T321 235T308 214Q299 192 286 159T257 88T228 16T205 -45T194 -83Q193 -107 190 -114T178 -124ZM120 55Q115 57 111 59T99
67Q86 74 77 81T62 100T55 126Q55 130 64 139T86 152T115 149Q105 126 108 114T149 96Q166 94 181 94T218 98Q241 99 258 101T282 107Q310 115 333 127T364 153Q376 164 377 171T378 194Q377 206 376 213T373 226T365 243T348 269Q348 274 333 286T304 310Q297
322 287 336T263 358Q259 363 254 373T240 393Q226 416 237 447T280 506Q288 516 304 528T336 550T355 560Q355 560 361 562T378 569Q390 571 403 575T430 580Q450 585 462 586T502 586Q514 583 529 577T555 560T566 539T551 516Q540 514 528 520T498 533T458 538Q425
537 393 525T339 489Q313 473 302 456T291 427Q293 422 297 413T308 393Q329 371 344 356T368 332T382 318T387 311Q391 303 400 290T415 269Q418 267 421 261T426 249Q430 247 433 233T438 202T440 176Q440 168 435 158T420 139T400 120Q389 111 367 98T319 74T271
59Q256 55 233 52T186 49T144 49T120 55Z" />
<glyph unicode="%" horiz-adv-x="600" d="M125 -94Q107 -91 102 -76T104 -37T133 17Q142 25 149 31T158 45Q163 52 180 72T220 119T265 170T304 213T321 234Q325 233 330 238T337 251Q340 259 347 265T361 273Q363 278 366 281T370 288Q371 292 374 295T379 302Q388
310 410 331T461 382T521 443T579 503T623 550T642 572Q649 585 661 579Q668 583 677 579Q677 579 678 575T684 560Q689 550 688 543T681 525Q676 514 670 506T649 485T604 445Q597 437 577 418T533 376T493 337T475 318Q471 317 466 313T455 298Q447 290 430 273T398
242T382 224Q380 221 376 219T366 215Q365 216 364 213T362 210Q362 206 354 195T328 169Q311 149 284 116T228 46T177 -20T149 -62Q141 -81 137 -87T125 -94ZM476 33Q494 53 505 72T526 119Q530 132 530 153T525 177Q515 182 502 181T474 165Q449 146 432 116T397
48Q386 21 392 5T421 -8T476 33ZM400 -58Q390 -58 384 -54T369 -43Q353 -27 347 -12T344 16Q346 23 346 28T345 34Q341 39 343 40T346 44Q351 44 349 53Q348 59 356 81T376 122Q381 130 390 143T410 169T432 190Q452 207 467 215T500 227Q518 232 525 232T544 218Q562
211 570 200T581 166Q583 142 578 112T540 35Q520 7 503 -7T463 -35Q446 -46 432 -51T400 -58ZM337 402Q355 422 366 441T387 488Q391 501 391 522T386 546Q376 551 363 550T335 534Q310 515 293 485T258 417Q247 390 253 374T282 361T337 402ZM260 312Q250 312
244 316T229 327Q213 343 207 358T204 386Q206 393 206 398T205 404Q201 409 203 410T206 414Q211 414 209 423Q208 429 216 451T236 492Q241 500 250 513T270 539T292 560Q312 577 327 585T360 597Q378 602 385 602T404 588Q422 581 430 570T441 536Q443 512 438
482T400 405Q380 377 363 363T323 335Q306 324 292 319T260 312Z" />
<glyph unicode="&amp;" horiz-adv-x="564" d="M657 -54Q658 -66 647 -67T617 -64T578 -49T543 -30Q524 -25 490 7T417 85Q377 63 352 50T307 28T258 11Q192 5 137 24Q129 27 117 36T92 55T75 70Q70 73 70 83T72 105T75 119Q78 128 92 150T129 203T178 264T231
321Q207 356 198 387T198 456T236 543Q246 559 261 576T291 609T318 633T331 640Q335 633 339 635T347 637Q351 639 362 639T387 636T415 629Q451 625 465 621T492 603Q507 592 515 581T526 560T530 540Q530 527 510 500T455 443Q442 427 429 415T415 402Q415 398
410 391T397 381Q386 371 366 353T330 320T313 302Q312 300 322 285T348 248T380 207T410 173T427 159Q460 191 495 221T568 286Q593 312 603 322T619 332T632 324Q645 322 646 312T643 292T638 281Q625 264 602 242T553 197T504 152T466 116Q466 116 478 102T503
76Q536 42 554 29T595 7Q626 -3 641 -17T657 -54ZM166 67Q196 58 225 60T286 77T357 117L376 131L351 160Q344 168 330 187T302 223Q287 237 279 250T271 263Q268 263 258 253T236 230T218 206Q195 188 183 171T156 130Q149 114 148 102T151 82T166 67ZM280 357Q291
369 313 387T362 428T412 474T448 519T457 558Q455 562 441 569T409 582T379 587Q359 589 334 566T285 510Q260 473 255 433T280 357Z" />
<glyph unicode="&apos;" horiz-adv-x="117" d="M189 440Q179 439 176 440T166 447Q165 454 168 460T176 473Q188 493 203 520T224 563Q226 574 230 591T235 628Q235 633 235 640T239 652T247 655Q256 651 266 646T283 633T288 615Q286 591 278 571T264 530Q258
508 244 489T213 450Q214 446 207 445T189 440Z" />
<glyph unicode="(" horiz-adv-x="330" d="M287 -128Q246 -120 213 -90T166 -17Q147 25 148 92T168 230Q173 249 177 269T182 296Q185 306 195 329T218 381T243 440T265 493Q276 518 297 552T342 620T385 679T413 710Q418 715 427 723T443 732Q447 743 459 750T480
757Q503 769 516 764T538 729Q541 715 539 711T516 698Q506 694 491 687T469 671Q460 660 449 649T432 634Q414 627 414 618Q414 618 406 601T378 560Q366 541 350 513T325 471Q316 455 311 445T295 423Q295 420 292 409T280 384Q274 362 256 325Q249 309 240 283T224
233T217 199Q215 199 214 194T210 170T201 110Q200 65 203 36T218 -13T247 -54Q258 -64 269 -69T295 -75L329 -96Q323 -119 314 -124T287 -128Z" />
<glyph unicode=")" horiz-adv-x="330" d="M72 -120Q53 -115 43 -106T31 -82Q32 -79 32 -74T36 -61Q36 -61 42 -64T65 -63Q85 -64 93 -59T116 -37Q127 -22 141 -2T161 31Q177 42 184 51T197 71Q197 76 200 89T215 122Q226 147 236 164T246 187Q246 187 249 194T251
211Q257 214 261 224T265 246Q265 249 274 269T284 311Q295 347 300 375T309 438T315 525Q317 570 318 592T318 627T308 651Q298 683 291 683Q288 683 285 691T285 714Q284 718 288 723T301 727Q308 727 316 722T328 712Q332 716 340 703T359 660Q365 646 368 637T372
616T372 584T369 527Q369 492 365 451T354 370T341 298Q334 272 322 236T296 162T269 96T248 55Q250 55 243 43T223 13T197 -25T175 -59Q160 -80 141 -95T104 -117T72 -120Z" />
<glyph unicode="*" horiz-adv-x="363" d="M422 407Q412 400 398 413T374 444Q371 451 367 464T356 494Q355 507 355 519T354 531Q353 532 325 511T252 445Q224 419 215 414T200 410Q193 411 191 415T189 421Q188 424 188 434T191 452Q196 458 212 475T247 511T282
545T301 563Q309 571 309 574T301 584Q297 589 295 591T296 594Q296 594 296 597T291 601Q288 606 287 611T285 618Q285 623 285 625T285 628Q281 631 280 639T279 656T282 667Q282 667 284 667T291 662Q295 662 299 656T311 638Q319 622 325 615T339 607Q339 607
346 620T356 652Q370 671 380 688T395 713Q397 719 401 724T405 729Q405 729 407 734T413 740V740V740Q420 748 422 749T427 749Q431 744 435 741T442 729L452 713L439 696Q417 663 407 636T398 608Q398 608 407 612T427 618Q438 623 448 625T460 629Q470 629 484
638Q499 643 508 638Q516 631 519 619T522 601Q521 600 504 592T460 575Q435 568 416 561T395 549Q383 549 395 532Q397 526 397 517T398 497Q403 478 405 466T409 453Q413 453 413 459Q413 463 422 463Q425 463 428 459T434 449T435 442Q435 442 435 439T435 436Q439
435 437 428T430 414T422 407Z" />
<glyph unicode="+" horiz-adv-x="446" d="M178 178Q172 178 163 178T143 183Q128 183 123 186T114 197Q103 212 112 217T158 227Q175 231 208 233T281 237T355 240T410 241Q436 241 445 239T465 226Q480 211 476 198T449 188Q444 188 434 187T411 185T386 183Q380
183 353 182T291 180T224 179T178 178ZM304 31Q289 20 284 29T274 75Q270 92 268 125T264 198T261 272T260 327Q260 353 262 362T275 382Q290 397 303 393T313 366Q314 361 314 351T316 328T318 303Q318 297 319 270T321 208T322 141T323 95Q323 89 323 80T318
60Q318 45 315 40T304 31Z" />
<glyph unicode="," horiz-adv-x="198" d="M52 -79Q42 -79 40 -78T33 -69Q33 -62 36 -57T47 -45Q57 -35 70 -21T94 9T111 33Q115 44 118 59T126 92Q126 100 126 106T131 117Q138 124 143 123T153 111T160 78Q164 56 160 38T145 -6Q143 -13 132 -27T110 -53T96 -65Q92
-65 89 -67T82 -74Q78 -78 71 -78T52 -79Z" />
<glyph unicode="-" horiz-adv-x="326" d="M178 178Q172 178 163 178T143 183Q128 183 123 186T114 197Q103 212 112 217T158 227Q192 235 221 238T290 241Q316 241 325 239T345 226Q360 211 356 198T329 188Q322 187 303 186T266 183Q255 182 231 180T178 178Z" />
<glyph unicode="." horiz-adv-x="198" d="M153 52Q134 45 122 45T94 57Q75 75 81 93T114 130Q132 141 140 142T167 135Q197 116 194 93T153 52Z" />
<glyph unicode="/" horiz-adv-x="330" d="M67 -94Q37 -95 33 -62T53 23Q59 34 65 44T72 62Q75 68 88 93T121 155T162 230T203 303T235 361T250 386Q254 385 258 391T264 405Q266 413 271 422T281 433Q283 438 286 444T291 454Q292 458 295 461T299 469Q307 478
320 497T349 542T382 593T413 642T436 681T446 701Q449 716 466 713Q471 717 482 715Q482 715 484 711T494 696Q501 687 501 678T497 658Q495 645 490 636T472 610T432 558Q426 549 420 541T408 526T399 515T396 508Q395 504 390 497T378 478Q372 471 362 457T342
428T323 402T315 388Q314 385 313 381T306 374Q302 375 301 370T299 364Q299 356 273 315Q262 295 241 255T194 167T144 72T104 -9T85 -54Q81 -77 78 -84T67 -94Z" />
<glyph unicode="0" horiz-adv-x="450" d="M280 21Q273 21 259 27T228 43T202 62Q180 83 165 113T144 177T143 244Q154 308 191 370T276 474Q302 497 323 509T374 529Q385 532 398 532T418 533Q438 533 458 525T492 506T506 484Q506 477 505 474T496 474H486L496
445Q500 437 503 424T506 399Q506 390 503 371T495 329T485 288T476 260Q473 254 473 249T472 239Q468 232 460 212T447 184Q443 180 441 177T442 170Q442 168 437 158T427 138T418 129Q418 129 416 129T413 125Q413 121 400 105T369 70Q359 60 342 49T307 29T280
21ZM277 84Q288 84 298 87T315 98Q333 110 357 137T392 191Q403 206 409 222T430 279Q438 290 441 306T444 333Q444 344 444 363T449 395Q449 421 448 429T440 446Q436 449 430 452T416 455Q409 455 390 448T363 435Q356 431 348 434T339 442Q339 456 321 445T281
406Q263 388 251 370T238 347Q238 343 235 337T229 323Q224 316 217 300T204 269T195 245Q195 241 195 224T195 191Q195 174 196 162T201 142T209 123Q213 116 221 107T233 93Q244 83 251 82T277 84Z" />
<glyph unicode="1" horiz-adv-x="450" d="M321 -10Q318 -12 313 -11T302 -5T289 6Q285 10 284 15T286 35T295 80Q299 100 304 120T313 153T317 167Q322 169 331 197T353 265Q357 279 367 312T387 376Q396 405 402 428T408 452Q408 452 394 444T357 422T314 392Q297
382 274 364T232 335Q205 314 199 312T184 314Q171 325 167 337T168 359Q170 360 180 367T204 383T228 400T245 411Q248 411 256 418T273 431Q278 437 308 458T373 505Q410 528 435 542T465 555Q468 555 474 551T487 541T494 529Q500 522 488 497Q484 488 475 465T456
411T436 351T420 300Q412 269 406 252T394 220T381 177Q374 161 367 137T353 89T344 50Q336 28 331 11T321 -10Z" />
<glyph unicode="2" horiz-adv-x="450" d="M159 23Q155 25 148 30T133 43T122 57Q119 62 122 75T130 88Q133 86 140 95T154 114T161 127Q162 131 166 133T175 139Q180 147 188 155T202 170Q210 180 231 200T272 241Q293 264 309 281T326 306Q326 306 329 309T338
316Q343 319 351 326T366 339Q368 347 377 361T397 386Q405 398 412 412T421 434Q424 445 421 447T396 457Q372 465 344 464T280 437Q266 434 255 429T235 425Q231 427 226 434T215 447L205 468L236 485Q277 511 310 521T372 522Q383 522 392 520T401 517Q409 518
421 509T444 485T462 457Q478 433 473 407T442 343Q437 337 420 318T382 276T343 234T320 211Q313 208 297 191T262 153T231 117T220 101Q219 97 223 97T236 101Q251 106 275 111T326 119T371 124T394 122Q396 117 397 118T399 120Q401 127 424 124T467 115Q478
112 484 110T491 104Q491 104 493 100T502 88Q518 75 506 71T454 74Q428 74 411 71Q407 69 394 69T369 68Q351 70 333 67T290 55Q281 52 262 46T221 34T182 25T159 23Z" />
<glyph unicode="3" horiz-adv-x="450" d="M243 16Q218 16 195 21T157 36T144 58Q145 74 151 75T179 74Q213 67 252 73T325 94T378 128Q405 154 403 180T371 225Q358 234 335 242T290 254T253 258Q244 257 239 258T220 266Q214 273 209 281T202 294Q201 299 207
304T236 321T304 359Q346 382 370 396T409 420T433 438Q451 462 451 469T425 481Q400 483 377 484T354 481Q354 481 354 481T350 481Q345 483 328 480T296 473T279 466Q278 464 268 460T247 452T233 449Q228 451 222 459T211 477T209 492Q211 496 221 502T246 516T271
529Q285 533 310 535T362 537T400 537Q446 532 471 513T502 462Q505 448 504 439T495 421T467 393Q442 377 426 366T378 338Q371 333 359 325T337 311T327 302Q327 302 331 300T341 293T352 284Q381 274 405 252T439 216Q453 185 451 156T430 102T377 55Q349 39
312 29T243 16Z" />
<glyph unicode="4" horiz-adv-x="450" d="M317 7Q310 16 310 28T319 77Q324 103 331 133T342 182Q350 201 354 217T359 233Q359 233 346 232T315 223Q265 211 238 216T194 248Q189 253 186 265T182 290T187 307Q193 320 199 333T210 356T215 368Q215 371 217 374T220
382Q224 391 239 415T274 469T311 522T337 553Q345 557 354 559T366 558Q369 553 372 543T376 525T375 517Q375 517 373 517T370 512Q370 508 360 495T338 468Q324 449 312 432T289 397T268 363T247 328Q236 294 235 285T237 272Q243 269 262 270T317 282Q336 286
352 289T376 297Q384 297 390 300T397 307Q397 311 403 324T414 348Q422 363 433 388T457 433Q482 489 488 505T499 522Q503 522 510 519T521 507Q528 500 530 494T524 473Q522 461 519 453T509 432T490 397Q478 373 463 340T432 272T405 207T386 158Q372 118 365
96T358 61T362 38Q364 20 354 8T333 -6T317 7Z" />
<glyph unicode="5" horiz-adv-x="450" d="M167 24Q149 37 149 46Q145 52 140 52Q137 51 135 58T131 74T130 88Q134 96 142 97T157 96T166 84Q168 76 181 71T217 67Q245 68 275 81T332 114T375 155Q382 169 388 192T396 233T393 251Q393 251 392 258T387 273Q382
288 364 303T329 326Q322 328 304 329T270 329Q254 328 242 329T229 330Q224 331 215 338T197 353T189 366Q191 373 199 388T218 423T243 460T268 490Q298 523 336 539T416 554Q445 553 457 550T482 530Q490 516 489 505T481 490T462 492Q448 501 424 499T372 489Q351
481 328 464T299 435Q295 432 294 429T288 427Q288 427 285 424T282 416Q277 410 276 408T270 409Q270 409 270 406T269 399Q268 392 270 388T292 381Q317 377 330 374T368 355Q396 339 413 313T436 253T438 186Q435 164 432 152T415 119Q392 87 359 63T290 25T222
10T167 24Z" />
<glyph unicode="6" horiz-adv-x="450" d="M253 31Q220 22 198 24T155 47Q141 58 134 68T124 98Q119 113 118 122T119 144T127 184Q135 220 141 240T165 286Q173 307 183 328T199 356Q204 363 214 377T235 403Q245 416 253 427T262 439Q267 442 271 445T281 455Q289
464 303 476T336 499T373 518T408 528Q440 539 438 527Q438 527 441 524T452 519Q456 518 458 513T464 502Q466 494 464 488T447 469Q433 459 428 458T418 461Q419 465 414 466T409 468Q403 470 383 459T341 431T303 398Q294 390 287 382T278 370Q265 357 255 345T245
332Q248 326 259 329T272 336Q272 340 294 346T340 355Q349 359 364 356T390 351Q412 347 420 343T440 324Q460 305 467 287T474 242Q474 226 471 214T457 189Q449 176 436 159T411 127T389 107Q385 105 382 103T378 100Q377 94 364 85T330 64T290 44T253 31ZM186
80Q204 76 214 76T249 87Q257 89 264 91T275 92Q275 92 289 101T322 122Q375 156 404 197T428 266Q429 274 426 281T423 293Q420 293 413 295T395 299Q383 302 372 301T338 296T269 280Q262 278 253 274T235 267Q231 264 223 260T208 253Q196 252 188 234T169 166Q162
132 161 120T165 100Q167 88 173 85T186 80Z" />
<glyph unicode="7" horiz-adv-x="450" d="M221 -18Q209 -16 200 -5T185 20Q181 39 201 86T255 198Q277 234 276 240T257 246Q248 248 236 250T221 257Q205 265 203 274T209 285Q213 287 212 290T212 297Q215 298 219 297T229 295Q243 295 250 295T268 295Q273
295 280 295T294 294Q308 292 313 296T332 319Q340 333 357 356T387 405Q435 473 440 496T417 517Q401 516 382 510T324 490Q287 474 273 471T247 473Q241 474 238 479T234 492T234 507Q236 518 275 531T365 557Q388 561 409 562T445 560T465 549Q465 549 467 547T471
548Q475 547 477 541T485 524Q495 507 497 499T497 476Q494 465 487 454T476 440Q471 436 469 431T466 426Q465 422 460 419T450 409Q449 405 446 400T441 392Q440 391 433 380T416 354T398 327T386 309Q372 296 372 290T385 278Q402 271 413 262T428 238Q429 218
423 215Q418 208 408 209T394 214Q391 220 381 225T360 234T347 237Q343 235 339 230T330 218Q323 208 312 186T289 142T271 110Q270 105 266 100T259 88Q255 81 252 68T249 44T252 32Q260 34 263 31T269 19Q274 12 266 3T245 -13T221 -18Z" />
<glyph unicode="8" horiz-adv-x="450" d="M176 -32Q169 -31 162 -27T149 -17T136 -6Q129 11 126 20T126 50Q126 62 128 78T138 104Q145 124 160 151T194 205T229 254T254 287Q265 301 265 310T244 347Q240 358 235 363T234 369Q234 369 232 372T226 383Q211 397
211 426T226 483Q242 519 261 537T311 560Q322 559 348 554T402 543T447 529Q459 524 474 513T502 492T515 475Q515 472 518 469T523 460Q529 449 529 434T527 405T518 381Q493 353 483 349Q478 345 472 339T457 331Q452 324 448 319T439 314Q435 317 431 317T427
314Q427 312 414 305T386 293T368 290Q368 290 365 290T356 286Q343 288 371 254Q394 211 405 172T402 111Q383 68 361 41T326 14Q326 14 322 11T312 5Q310 -2 304 -4T292 -6Q283 -2 261 -16Q248 -25 231 -29T198 -34T176 -32ZM192 19Q202 18 220 25T258 43T294
65Q332 96 345 125T347 185Q341 197 334 211T322 233Q316 242 312 246T302 253Q302 253 295 248T282 231Q271 217 265 207T254 190Q247 183 241 177T232 168Q232 165 226 151T212 122Q190 84 185 53T192 19ZM347 349Q368 368 383 370T405 362Q407 358 428 371T466
401Q472 412 473 418T472 440Q473 450 470 456T458 469T427 483Q365 505 325 497T271 442Q265 423 265 408T273 376Q282 372 285 366T288 359Q288 350 296 350Q298 345 310 339T347 349Z" />
<glyph unicode="9" horiz-adv-x="450" d="M313 -27Q308 -26 302 -22T292 -13T288 -6Q289 -1 284 -1Q284 -1 282 5T281 19Q281 22 282 34T283 53Q285 73 293 106T312 175T333 241Q347 277 346 285T320 291Q289 286 264 299T223 337T210 392Q211 407 216 419T235
454Q256 485 281 509T333 550T387 571Q403 574 425 573T459 567Q474 561 487 545T509 510T514 480Q507 447 498 430T476 399Q460 385 439 348T396 264T358 170Q344 128 341 94T344 59Q348 59 354 56T365 53Q368 49 368 44T363 28Q360 21 354 12T339 -7T324 -21T313
-27ZM268 354Q283 338 309 344T363 372T413 427Q425 441 433 453T446 469Q459 483 460 492T455 508Q448 519 435 520T398 512Q382 509 369 503T334 482Q330 478 326 478T318 478Q318 478 316 478T314 473Q319 464 302 450Q276 422 267 394T268 354Z" />
<glyph unicode=":" horiz-adv-x="198" d="M229 262Q210 255 198 255T170 267Q151 285 157 303T190 340Q208 351 216 352T243 345Q273 326 270 303T229 262ZM159 52Q140 45 128 45T100 57Q81 75 87 93T120 130Q138 141 146 142T173 135Q203 116 200 93T159 52Z" />
<glyph unicode=";" horiz-adv-x="198" d="M59 -79Q49 -79 47 -78T40 -69Q40 -62 43 -57T54 -45Q64 -35 77 -21T101 9T118 33Q122 44 125 59T133 92Q133 100 133 106T138 117Q145 124 150 123T160 111T167 78Q171 56 167 38T152 -6Q150 -13 139 -27T117 -53T103
-65Q99 -65 96 -67T89 -74Q85 -78 78 -78T59 -79ZM229 262Q210 255 198 255T170 267Q151 285 157 303T190 340Q208 351 216 352T243 345Q273 326 270 303T229 262Z" />
<glyph unicode="&lt;" horiz-adv-x="446" d="M369 55Q330 66 311 71T273 91Q236 103 213 120T167 163L130 207L123 237Q131 239 146 248T163 259Q174 268 188 277T226 301T290 337Q332 357 348 368T376 387Q383 392 392 398T406 403Q412 404 415 403T422 397Q430
387 440 385T451 374Q451 374 447 367T435 354Q420 346 403 338T360 316T289 275Q262 259 242 248T211 228T202 205Q211 185 258 160T382 112Q409 106 429 96T456 76T449 58Q444 57 434 55T408 52T369 55Z" />
<glyph unicode="=" horiz-adv-x="446" d="M241 275Q235 275 226 275T199 280Q184 280 179 283T170 294Q156 309 167 314T221 324Q260 332 304 335T394 338Q425 338 435 336T456 323Q474 308 469 295T440 285Q430 284 408 283T363 280Q356 280 336 279T290 276T241
275ZM186 133Q180 133 171 133T145 138Q129 138 124 141T115 152Q101 167 112 172T166 182Q205 190 249 193T339 196Q370 196 380 194T401 181Q418 166 413 153T385 143Q375 142 348 141T298 138Q291 138 273 137T232 134T186 133Z" />
<glyph unicode="&gt;" horiz-adv-x="446" d="M186 43Q180 42 177 44T171 51Q162 61 152 64T144 75Q144 75 148 82T159 95Q176 103 193 109T238 128T312 163Q340 178 360 187T392 205T403 228Q395 248 350 276T229 332Q204 341 184 352T158 373T167 391Q173 392
183 393T209 395T248 387Q285 374 303 368T341 346Q376 331 398 312T441 265L475 219L480 189Q472 188 456 180T438 170Q427 162 412 154T373 134T307 102Q263 86 247 75T217 57Q210 52 201 47T186 43Z" />
<glyph unicode="?" horiz-adv-x="374" d="M250 191Q234 193 227 204T220 228Q220 230 220 236T223 250Q223 256 229 269T242 300Q253 320 276 345T315 382Q324 389 328 391T332 394Q332 398 346 409T370 425Q370 425 383 434T403 450Q426 473 437 492T454 537T467
599Q468 634 468 646T455 668Q434 679 404 671T345 639T301 581Q295 564 295 558T297 542Q297 534 299 527T302 515Q298 514 288 514T266 515T248 519Q248 519 244 525T238 535Q232 543 232 550T233 573Q240 593 252 616T283 661T327 695Q348 704 362 711T377 719Q377
719 384 719T410 722Q416 721 423 722T431 718Q434 718 443 718T460 718Q472 715 485 709T509 695T528 679Q535 657 534 625T524 556T501 488T466 433Q460 427 444 413T411 383T382 354Q348 335 322 297T283 223Q272 199 268 195T250 191ZM222 10Q203 3 191 3T163
15Q144 33 150 51T183 88Q201 99 209 100T236 93Q266 74 263 51T222 10Z" />
<glyph unicode="@" horiz-adv-x="643" d="M307 -125Q273 -125 239 -112T172 -73Q155 -57 142 -41T117 -3Q109 8 104 26T97 64Q96 81 99 106T108 155T121 193Q121 196 122 199T125 209Q125 215 132 229T148 256Q182 301 204 330T251 384T315 436Q334 451 360 464T413
487T463 500Q467 501 475 501T506 499Q537 496 564 484T613 451Q653 420 669 387T691 327Q695 313 695 287T692 236T683 197Q672 173 656 150T622 108T588 75T561 59Q546 59 522 66T485 83Q487 83 466 95Q466 95 459 88T441 71Q427 58 410 48T376 32T352 29Q333
34 322 38T302 50T278 78Q274 88 273 96T271 112Q271 122 274 134T281 161Q287 188 297 208T325 252Q341 275 359 289T407 316Q419 322 443 322Q452 322 461 320T479 312Q486 311 494 303T509 284T520 263Q523 248 523 241T520 217Q519 213 518 207T515 195Q514
187 512 179T508 165Q505 156 503 148T504 132Q503 128 510 124T527 116T541 113Q546 113 556 118T577 135Q593 152 605 165T626 192T641 229Q642 235 642 244T643 263Q643 313 620 359T543 428Q532 433 518 434T488 436Q466 436 444 433T401 420Q388 416 368 403T324
371T281 335T249 302Q206 251 182 199T151 96Q147 66 151 51T159 30Q170 8 189 -11T230 -45Q253 -54 282 -60T350 -64Q358 -66 360 -68T362 -80Q362 -81 363 -83T370 -96Q370 -105 366 -109T354 -117Q348 -119 341 -121T325 -124T307 -125ZM372 85Q382 91 394 101T417
123T431 142Q431 143 439 158Q447 170 454 187T465 221Q467 224 468 228T473 243Q473 249 472 253T462 262H463Q451 265 435 266T406 262Q391 256 376 237T348 194T328 145T322 104Q329 90 342 84T372 85Z" />
<glyph unicode="A" horiz-adv-x="502" d="M69 -33Q51 -23 50 -11T63 31T110 124Q134 169 146 194T163 231T168 245Q166 254 170 259T183 269Q188 274 199 287T221 318Q230 339 242 361T274 416T326 504Q346 539 370 575T421 648Q432 662 441 670T459 678Q471 678
486 670T515 649T534 621Q539 613 538 587T534 524T527 445Q524 404 518 348T507 231T498 114T498 15Q499 6 498 -2T497 -15Q491 -21 478 -21T452 -14T437 1Q434 4 434 9T434 33T436 90L441 252L428 251Q419 251 394 249T340 244T287 237T253 230Q244 230 232 218T208
187Q204 173 194 158T183 137Q176 132 172 125T167 118Q167 112 158 89T134 37T106 -13L85 -45L69 -33ZM276 289Q276 289 286 291T311 295T338 298Q380 308 399 311T425 315T439 312Q443 307 446 306T450 305Q451 307 453 328T458 380T465 444T471 506T474 550Q475
569 476 584T477 600Q471 600 452 578T408 520T363 443Q353 424 344 409T330 394Q328 392 319 377T298 342T280 307T276 289Z" />
<glyph unicode="B" horiz-adv-x="520" d="M205 -57Q162 -29 147 -9T159 29Q165 33 178 23T201 3Q221 -15 250 -19T317 -14Q359 -1 390 22T450 80Q471 107 479 138T486 197T474 235Q449 270 405 283T300 281Q293 280 279 277T254 272T242 269Q235 267 231 265T222
250T205 206T172 113Q151 52 139 27T117 3T93 25Q85 39 83 52T91 84Q96 93 99 100T107 127Q112 142 126 179T161 267T203 372T245 474T280 555Q294 586 297 600T295 615Q295 620 292 624T290 633Q290 637 303 644T333 657T359 661Q364 661 371 661T378 666Q381
666 397 668T432 668Q499 662 536 630T572 541Q571 524 555 495T515 437T469 388Q456 377 442 366T417 347T406 339Q406 339 414 336T431 330Q477 313 507 287T548 215Q552 200 549 178T539 135T526 98Q519 91 515 84T511 76Q511 74 503 61T484 31T463 3Q453 -5
440 -16T410 -37T374 -54Q346 -66 314 -70T252 -72T205 -57ZM254 328Q254 328 272 331T313 339T345 348Q350 351 359 356T379 371Q393 384 414 408T457 460T489 510Q512 546 514 563T503 594Q494 605 473 608T427 611T386 604Q373 600 366 595T359 578Q359 569
354 561T343 547Q342 540 338 535T334 529Q334 525 320 496T292 429Q274 386 264 360T254 328Z" />
<glyph unicode="C" horiz-adv-x="472" d="M214 -56Q199 -50 184 -43T155 -23T131 15Q121 44 118 72T115 137Q115 189 122 227T146 306Q148 309 153 323T166 355T178 381Q186 398 202 426T238 482Q267 525 286 550T322 592T360 624T416 663Q438 679 464 680T514
669T548 632Q559 611 559 582T550 520T525 458T488 410Q475 398 465 401T440 417Q431 434 431 437T434 441Q440 448 450 465T470 501T484 533Q492 575 495 592T489 619Q485 623 478 622T453 612Q430 602 393 568T325 491Q285 438 258 397T217 313Q215 309 211 298T206
287Q207 283 203 268T194 241Q183 195 181 146T186 58T209 5Q222 -4 244 -1T296 13T355 37Q379 47 399 59T429 80Q437 86 449 92T471 99Q485 104 487 103T489 94Q489 80 474 63T434 32Q426 24 413 15T386 1Q365 -15 334 -30T272 -53T214 -56Z" />
<glyph unicode="D" horiz-adv-x="578" d="M225 -95Q206 -98 190 -98T143 -91Q127 -86 121 -79T99 -53Q88 -37 84 -24T82 -3T95 2Q98 1 104 -4T117 -18Q131 -33 151 -38T204 -39Q218 -36 238 -31T277 -17T307 -1Q360 35 392 56T424 77Q426 81 431 83T445 89Q451
95 464 108T490 134T506 149Q508 158 510 163T512 175Q520 183 533 208T561 265T581 323Q595 393 588 441T560 523T506 585Q495 594 476 604T435 623T399 636T380 640Q376 639 364 609T334 531T298 431T261 331Q255 312 248 291T236 255T231 234Q220 217 214 189T199
96Q190 62 186 45T178 28Q178 28 178 28T174 24Q174 18 166 18T148 22T131 33Q128 44 128 54T135 93Q140 112 147 139T164 196T181 251T193 289Q200 306 213 353Q221 379 229 405T246 451T257 478Q262 491 272 522T298 591L305 624L294 629Q282 625 276 626T267
629Q261 627 250 632T231 645T220 659Q218 663 218 669T217 676Q218 682 232 687T268 697T317 702T369 702Q395 700 418 691T468 672Q500 660 535 631T600 561T640 477Q643 465 646 443T649 401T645 374Q643 370 643 365T646 357Q645 354 639 335T628 301Q626 275
616 247T594 195T572 153Q568 153 565 152T565 149Q565 144 554 130Q550 127 542 116T528 100Q527 93 522 89T513 84Q513 84 512 84T510 80Q502 68 485 52T447 18T403 -15T360 -38Q350 -45 339 -49T318 -59Q313 -63 296 -70T260 -85T225 -95Z" />
<glyph unicode="E" horiz-adv-x="529" d="M231 -24Q200 -22 177 -5T127 30Q110 47 100 66T84 118Q80 137 84 166T97 224T114 272Q126 300 144 332T181 394T211 442Q218 449 218 449T217 450Q217 455 227 475T246 512Q261 528 263 538T260 554Q258 558 267 568T294
591T335 617Q359 636 381 637T408 628Q408 625 419 626T446 631T474 637Q479 643 497 646T541 653Q554 652 566 652T587 654T596 655Q603 657 612 653T630 631Q637 613 626 604T573 590Q543 586 521 584T475 578T416 566Q391 561 375 555T347 536T320 500Q313 495
302 474T280 432Q252 393 232 365T215 331Q215 331 226 328T241 325Q251 330 265 332T289 336Q351 352 386 361T440 374T469 380Q483 391 496 384T518 362Q523 351 519 343T494 327T433 308T328 279Q273 263 234 260T197 277Q190 281 182 268T165 231T152 182T145
134T147 100Q155 77 168 64T215 40Q235 39 254 37T297 45Q356 55 390 66T429 81Q437 85 439 85T447 86Q444 81 449 85T465 100Q476 110 494 119T526 133T542 133Q548 123 540 106T511 68T457 28Q404 0 342 -11T231 -24Z" />
<glyph unicode="F" horiz-adv-x="454" d="M511 316Q508 309 488 305T424 296Q411 295 386 294T331 292T277 291T244 294Q244 294 240 289T235 276Q228 264 218 239T195 184T172 124T154 72T147 42Q138 18 136 1T129 -19Q128 -23 116 -21T96 -10Q84 -1 83 6T88
36Q91 49 98 74T115 131T135 191T156 240Q167 259 170 274T178 303Q177 314 178 318T186 330Q191 334 198 344T216 377Q219 387 225 404T238 440T249 472T254 486Q256 490 260 501T266 520Q270 534 272 543T271 552Q263 550 239 549Q227 547 222 547T212 545Q202
544 194 547T186 559Q188 575 197 585T222 597Q229 599 237 600T261 606Q280 610 290 612T307 613Q312 616 316 619T320 627Q320 632 324 634T335 637T347 636T357 629Q359 626 366 624T391 624T444 634Q462 636 489 638T533 635Q550 638 563 638T582 641Q603 637
612 636T628 629Q632 625 631 622T629 618Q625 620 630 618T637 613Q644 610 646 606T648 597T647 590Q646 581 637 580T592 579Q549 585 508 584T411 574Q391 573 376 569T358 564Q354 564 344 551T325 511Q321 504 311 479T290 425T270 374T259 350Q273 346 304
346T374 348T445 354Q460 357 476 359T498 360Q503 357 507 349T512 331T511 316Z" />
<glyph unicode="G" horiz-adv-x="487" d="M171 -31Q144 -14 129 17T115 81Q114 143 125 206T156 330Q169 366 184 404T216 477T244 531Q275 582 309 615T361 659Q375 667 409 675T481 674Q507 667 529 657T559 640Q567 628 573 620T580 599Q581 591 575 580T559
563T540 568Q527 588 513 595T483 611Q472 618 453 618T414 614T379 597Q369 588 353 571T321 532T295 491Q268 444 247 397T210 293Q206 279 200 252T187 198T179 154Q172 105 174 68T200 17T276 21Q299 24 325 41T377 83T421 138Q438 170 451 201T466 252T447
271Q410 275 387 274T346 280Q339 291 340 302T352 324Q363 328 389 330T445 329T498 314Q515 306 522 291T529 255T525 214Q520 192 504 162T464 97Q449 76 423 51T369 6T322 -21Q282 -39 240 -44T171 -31Z" />
<glyph unicode="H" horiz-adv-x="563" d="M130 -83Q130 -83 127 -82T120 -79T109 -78Q93 -74 86 -61T83 -31Q87 -27 89 -14T91 7Q95 15 96 18T101 38Q104 55 111 85T128 151T147 218T163 272T174 297Q174 297 174 300T174 308Q174 308 175 317T185 339Q189 350
192 363T195 380Q199 385 206 404T221 443Q227 459 234 477T247 508T253 521Q253 525 253 525T253 526Q257 530 272 566T315 661Q319 669 325 679T331 693Q336 701 345 701T363 694T378 677L388 661L352 589Q336 561 326 538T315 511Q315 511 309 495T295 457T281
417Q270 386 261 366T251 342Q251 344 273 345T329 346T398 346T461 347T499 350L551 355L585 458Q593 486 606 526T629 594Q645 640 654 651T675 662Q678 662 683 661T694 656T702 646Q714 635 714 621T697 584Q681 557 671 526T652 474Q652 462 649 455T642 443Q640
441 634 428T623 402T618 386Q618 379 615 369T608 355Q606 349 599 325T583 269T564 206T546 155Q546 148 541 138T536 119Q532 107 526 89T520 66Q515 43 510 19T501 -22T497 -43Q493 -47 485 -44T466 -37Q447 -26 444 -14T451 22Q456 30 463 61T479 124Q485
139 492 164T506 216T518 261T525 282Q525 286 525 289T525 292Q523 294 500 295T443 297T373 295T307 289Q296 289 282 289T260 289Q249 289 242 289T234 289Q233 286 227 268T213 225T197 173T183 125T175 94Q171 76 165 49T151 -6T138 -56T130 -83Z" />
<glyph unicode="I" horiz-adv-x="400" d="M192 -31Q185 -20 161 -17T101 -16Q87 -18 74 -15T54 -4T48 12Q49 24 68 31T131 39L184 40L194 60Q198 71 204 91T217 134Q221 148 229 172T246 223T262 271T271 302Q275 311 282 332T295 376T304 409Q330 488 338 521T342
556Q338 556 323 555T289 553T256 549T238 545Q233 538 221 542T206 556Q205 565 205 570T211 578Q218 584 238 591T283 605T332 614Q349 616 366 621T393 635Q402 638 410 640T428 641Q436 636 455 636T497 637Q553 642 572 640T599 624Q604 605 601 595T581 585Q572
583 549 582T499 579Q428 573 423 565Q419 561 417 557T410 548Q411 544 406 523T392 479Q388 466 380 442T364 393T348 347T338 319Q334 310 332 300T328 284Q314 235 304 201T285 142T269 93T254 41Q254 41 269 42T311 46Q358 51 378 52T406 50T416 37Q436 10
421 0T350 -9Q298 -11 271 -12T233 -17T220 -27Q220 -35 212 -35T192 -31Z" />
<glyph unicode="J" horiz-adv-x="306" d="M89 -181Q72 -189 51 -188T8 -176T-29 -148Q-36 -140 -38 -133T-36 -112Q-31 -94 -23 -94Q-12 -94 2 -113Q30 -138 57 -127T116 -68Q122 -53 135 -25T162 35T189 94T205 134Q205 134 205 137T210 145Q211 149 215 161T223
189Q227 200 234 222T250 268T265 308Q270 329 277 353T290 391Q294 399 302 423T320 477Q332 516 343 549T360 604T365 629Q365 629 348 626T309 619Q292 612 276 614T260 621Q260 625 260 625T260 626Q257 624 252 627T243 637T239 649Q239 657 259 663T310 674Q330
677 349 679T382 684Q386 687 396 684T418 676T435 665Q441 657 442 648T440 623T426 578T396 497Q374 435 357 385T326 301Q323 290 316 269T301 227T290 191Q282 172 275 150T264 115Q264 107 260 97T251 82Q251 82 244 65T227 23Q219 3 210 -21T192 -59Q187
-71 180 -81T173 -96Q173 -96 173 -99T168 -102Q168 -102 165 -104T162 -112Q160 -118 152 -128T132 -149T109 -168T89 -181Z" />
<glyph unicode="K" horiz-adv-x="498" d="M96 -37Q83 -29 82 -22T87 7Q86 20 88 31T92 46Q97 46 98 52T99 62Q99 70 105 89T117 128Q125 148 132 165T140 187Q140 195 144 203T153 220Q158 232 160 246T163 269Q169 282 176 297T187 328Q193 345 204 377T229 444Q238
463 247 484T263 520T273 535Q273 535 273 538T273 546Q273 551 281 565T296 596Q306 611 310 624T314 638Q314 638 317 644T325 654Q338 663 349 661T369 642Q377 626 376 616T367 593Q359 575 346 548T319 489T292 429T272 380T264 354L223 253Q223 251 220 243T211
219T197 177T178 114Q158 50 147 15T130 -34T116 -48Q112 -48 108 -45T96 -37ZM449 -45Q440 -46 425 -37T392 -13T359 16T334 42Q318 65 294 102T258 183Q251 215 244 233T235 264L236 334L287 318Q292 264 302 229T328 166Q340 140 355 115T387 72Q410 47 428
35T455 23Q460 22 469 16T487 4T497 -9Q498 -12 498 -18T497 -30T493 -39Q490 -46 483 -51T449 -45ZM225 326L298 379Q301 382 319 399T381 448L504 548Q529 561 555 581T596 610Q613 622 626 631T643 639Q651 643 659 637T673 620T678 601Q680 591 674 584T645
564Q626 555 612 546T594 531Q594 531 576 517T528 482Q488 456 460 433T423 398Q419 398 416 395T408 393Q408 393 401 388T389 378Q387 373 381 364T364 356Q357 352 339 340T302 312T268 285T253 271L225 326Z" />
<glyph unicode="L" horiz-adv-x="426" d="M217 -38Q177 -28 146 2T105 64Q104 77 103 98T101 137T104 158Q107 160 107 170Q106 174 108 183T114 203Q119 215 119 222T118 234Q118 234 121 240T128 251Q134 257 134 263T133 269Q132 273 135 280T141 291Q143 293
146 299T150 306Q150 309 154 322T165 350T176 379T185 396V398Q189 408 196 419Q197 424 201 435T210 458Q221 482 237 512T273 573T309 628T340 665Q357 684 367 685T392 671Q399 664 402 654T405 637T400 628Q393 624 379 606T348 562T314 511T285 463Q272 434
261 413T250 391Q249 388 248 386T246 382Q231 351 221 326T201 272Q195 265 194 258T193 251Q191 252 190 247T186 234Q181 230 180 222T179 205Q172 187 166 162T158 113T156 76Q158 59 173 46T211 23Q222 19 230 17T245 14Q253 13 265 14T300 20H299Q312 22
326 25T354 32Q366 34 377 36T394 41Q416 47 426 49T441 48Q446 44 448 39T447 24Q445 19 431 10T398 -9T359 -24Q339 -33 312 -38T259 -43T217 -38Z" />
<glyph unicode="M" horiz-adv-x="720" d="M661 -48Q660 -54 650 -52T631 -37Q623 -18 623 -2T624 46Q630 81 640 137T665 264T697 412Q709 452 716 485T728 540T732 561Q732 564 727 559T716 546T712 535Q712 535 705 525T687 498Q677 488 663 458T632 402Q616
372 598 338T566 280Q557 267 548 250T537 228Q533 217 523 202T501 171Q495 162 489 153T480 137T476 130Q476 127 467 112T444 79T418 48Q383 11 362 5T315 22Q302 38 296 58T291 109T298 186Q305 221 311 256T322 323T332 377T340 406Q342 426 339 428T327 416Q323
409 306 382T267 314T222 227Q181 151 155 102T113 23T90 -20T80 -39T75 -46Q66 -46 57 -39T37 -21Q34 -14 34 -7T41 13T59 55Q72 81 83 100T100 124Q105 132 109 140T114 159Q119 165 129 183T151 224Q159 237 171 258T198 304T223 353Q269 432 301 486T349 556Q354
561 359 570T365 586Q365 607 373 624T391 640Q401 640 409 638T426 625Q434 613 440 601T439 553Q439 539 436 522T431 490T427 467Q414 428 403 380T383 282T368 190T361 120T362 88Q369 84 374 87T391 113Q398 125 410 142T435 175Q443 189 460 217T503 289T567
396T653 544Q676 579 696 612T730 656Q744 669 759 663T785 636T798 586Q799 572 795 541T781 471T758 389Q755 372 749 347T734 294T718 243Q713 210 707 178T702 135Q693 119 690 89T687 27Q683 -12 681 -28T674 -43Q661 -39 661 -48Z" />
<glyph unicode="N" horiz-adv-x="599" d="M97 -62Q87 -51 84 -44T83 -26T91 4Q99 36 108 57T127 102T144 163Q160 200 172 233T192 287T199 308Q200 312 208 329T228 370T252 420Q269 468 279 502T301 565T330 620Q342 641 358 647T388 647T409 620Q414 610 417
596T424 556T428 481Q430 424 429 369T429 266T440 186Q443 168 448 143T460 92T473 50T484 33Q489 33 497 46T519 93T552 189T595 350Q600 367 608 405T621 482Q628 507 635 537T647 590T653 616Q653 623 653 628T653 638Q658 638 662 651T666 675Q666 692 670
702T680 718Q683 726 695 726T719 719T734 703Q736 692 729 654T706 550Q706 539 700 514T688 461T678 413Q674 387 669 365T659 343Q633 230 605 151T554 21Q530 -34 502 -45T441 -16Q422 10 411 35T393 95T376 181Q361 222 360 264T362 350T368 443Q367 491 364
507T353 506T325 435Q318 416 307 389T284 336T265 290T255 265Q249 253 241 234T228 192Q192 98 175 42T149 -36Q139 -64 128 -73T97 -62Z" />
<glyph unicode="O" horiz-adv-x="496" d="M175 -20Q138 8 128 23T116 61Q114 79 116 110T123 171T130 216Q135 221 135 229T134 238Q133 243 141 264T156 320Q176 380 194 420T231 490T267 543Q308 585 333 606T389 642Q409 654 426 661T454 663Q510 651 538 618T579
514Q586 470 587 435T582 365T557 289T505 193Q470 124 427 73T338 -7T250 -41T175 -20ZM239 9Q262 12 283 23T327 55T379 110Q405 140 421 160T449 202T471 253T496 331Q504 361 508 381T513 418T514 459T513 518Q512 535 506 553T492 581Q482 592 464 596T424
591Q412 586 393 569T353 528T314 481T284 439T272 413Q272 413 272 408T267 398Q254 384 239 348T209 267T186 177T174 99Q172 72 172 62T176 47T189 26Q195 16 209 11T239 9Z" />
<glyph unicode="P" horiz-adv-x="464" d="M110 -48Q98 -48 90 -35Q84 -29 83 -19T89 19T116 104Q126 142 132 159T138 185Q138 196 140 203T143 218Q149 218 155 229T165 259Q169 276 172 286T176 301Q181 309 186 326T204 367Q212 397 222 429T242 490T260 535Q271
566 277 578T277 595Q270 600 274 612T296 639Q307 652 315 657T335 663T372 661Q390 660 410 660T436 660Q445 656 458 652T481 643T492 636Q492 630 496 629T506 626Q513 626 525 616T550 590T570 557Q578 540 582 525T582 482Q581 467 578 452T570 432Q564 428
559 422T554 411Q554 407 547 396T529 369T505 339T480 313Q467 297 450 283T418 260Q392 248 361 236T301 216T253 209Q224 205 216 202T203 184Q198 171 194 158T189 139Q187 135 180 115T164 67T147 14T135 -29Q131 -43 125 -45T110 -48ZM234 262Q238 258 265
261T323 276Q343 283 363 293T403 315Q413 322 433 340T473 383Q476 388 483 402T497 430Q506 444 515 471T519 517Q514 543 493 565T443 596Q421 600 407 600T375 597Q359 592 352 583T332 545Q325 531 312 503T290 449Q272 383 255 341T233 287Q234 276 232 272T234
262Z" />
<glyph unicode="Q" horiz-adv-x="502" d="M231 -71Q216 -68 198 -59T165 -37T143 -9Q118 42 116 99T130 239Q135 256 143 285T162 343T180 392T190 412Q193 415 193 429Q193 434 201 450T223 488T251 528T279 559Q299 585 324 603T375 635Q381 639 392 644T418
653T443 658Q493 661 518 646T562 592Q582 570 584 550T590 501Q590 474 585 438T570 366T550 307T529 283Q529 283 526 283T523 277Q525 270 519 246T498 192Q466 102 423 42T330 -48T231 -71ZM437 -126Q421 -127 405 -115T385 -89Q378 -83 378 -78T376 -70Q372
-68 365 -60T355 -40Q348 -26 335 0T306 55T280 105T266 130Q258 138 268 150Q273 162 279 164T305 161Q328 161 347 113Q348 108 356 89T374 52T390 28Q395 17 401 3T414 -20Q417 -31 427 -44T441 -71Q464 -107 464 -117T437 -126ZM239 -13Q281 -8 322 34T401
146T469 301Q478 326 491 356T514 424T524 502Q530 546 521 567T488 599Q456 611 418 595T342 535T276 422Q235 335 211 266T180 142T183 42Q185 11 199 -4T239 -13Z" />
<glyph unicode="R" horiz-adv-x="537" d="M140 -60Q136 -70 126 -71T98 -59Q86 -47 83 -41T86 -19T110 36Q114 60 124 84T139 119Q143 133 155 165T184 238T216 313T238 367Q255 407 273 451T322 562Q326 572 326 583T310 594Q300 605 299 616T309 633L361 654Q408
665 457 661T551 633Q599 605 619 577T639 519T629 462Q621 441 599 416T547 366T486 321T427 289Q402 277 375 268T319 250Q303 246 281 246T248 250L231 203Q221 167 197 96T140 -60ZM537 -71Q529 -74 519 -73T485 -57Q441 -31 397 6T298 106Q277 131 263 152T232
211L218 265L245 280L281 244Q297 209 322 177T370 120Q388 99 419 70T485 13T548 -28Q554 -33 552 -43T546 -61T537 -71ZM279 301Q302 303 333 312T395 335Q424 349 456 368T517 412T562 462T578 514Q578 527 568 541T544 566T517 581Q477 591 451 594T411 591T392
564Q392 561 384 544T365 502T342 449Q313 390 298 360T279 317T279 301Z" />
<glyph unicode="S" horiz-adv-x="486" d="M254 -50Q236 -45 225 -42T214 -38Q216 -33 213 -29T198 -24Q183 -15 171 -2T150 25T138 47Q131 62 131 65T143 74Q154 82 159 79T173 59Q186 36 217 24T288 13T364 31Q401 46 410 62T403 105Q400 113 396 118T384 131T356
157Q341 164 329 170T302 183Q286 191 264 206T221 241T192 276Q176 291 168 317T162 374T177 428Q183 442 197 462T230 504T265 542T293 566Q301 574 310 582T319 591Q320 596 322 596T325 596Q330 599 347 606T384 632Q451 664 493 679T562 694V694V694Q587 693
607 683T641 655T658 614Q665 590 654 559T622 500T575 458Q547 446 538 447T529 468Q529 476 534 487T565 526Q597 573 604 601T591 632Q585 634 570 632T536 627T504 620T491 614Q491 614 491 611T487 609Q485 609 470 601T434 580T392 554T357 532T341 520Q339
509 318 500Q298 488 282 465T245 408Q228 385 221 359T221 316Q226 300 252 275T317 227Q351 208 378 190T422 154T446 124Q458 107 463 90T469 56T466 27Q459 11 442 -6T412 -22Q401 -25 396 -29T383 -36Q376 -40 354 -44T304 -49T254 -50Z" />
<glyph unicode="T" horiz-adv-x="458" d="M215 -44Q207 -44 197 -31T188 -6Q189 10 197 40T215 101T233 150Q237 166 240 178T245 195Q248 199 254 216T265 249Q267 257 273 279T289 332T308 391T325 442T334 471Q342 483 346 494T351 509Q357 513 358 519T359
530Q359 535 362 538T366 545Q370 548 371 554T377 566L382 583L441 584Q439 572 435 555T416 508Q411 488 405 472T399 451Q397 449 391 431T376 387T359 335T344 290T335 265Q327 249 317 218T287 134Q279 118 268 86T249 28Q238 -11 234 -26T226 -43T215 -44ZM223
552Q195 551 182 555T172 575Q175 587 185 593T214 602Q225 604 242 607T276 613Q309 617 330 620T375 625T433 629Q462 631 482 632T503 634Q506 634 524 632T563 627T594 620Q617 615 627 606T642 580Q645 568 642 566T631 559Q608 552 597 552T572 557Q567 562
561 566T539 572T490 577Q462 574 441 574T420 569L361 566L312 561Q302 560 284 559T249 556T223 552Z" />
<glyph unicode="U" horiz-adv-x="482" d="M220 -52Q174 -35 150 1T124 104T144 275Q151 310 164 355T194 447T231 539T270 618Q293 659 305 669T328 678Q347 673 355 660T362 631T342 604Q331 591 314 557T278 490Q258 432 243 388T218 304T200 222Q191 180 187
153T181 109T179 78T179 51Q187 38 192 28T205 16Q222 8 243 12T286 28Q291 38 299 42T307 46Q309 41 311 43T315 50Q314 54 317 57T324 65Q332 68 347 85T379 125T407 165T419 187Q419 192 423 196T432 206Q437 211 452 238T486 303T520 371Q523 382 531 406T548
463T567 527T583 585T593 623Q595 636 599 644T604 657Q609 659 616 656T630 649T644 642Q650 634 649 622T643 586T627 515Q606 433 577 364T513 218Q513 218 513 218T513 212Q501 205 494 191Q489 182 486 176T477 166Q474 157 471 150T468 143Q467 138 461 134T449
126Q444 124 443 118T439 108Q417 75 389 43T332 -12T275 -46Q257 -53 246 -54T220 -52Z" />
<glyph unicode="V" horiz-adv-x="490" d="M260 -58Q255 -56 253 -52T249 -36Q249 -25 243 -20T220 -11Q209 0 204 14T197 60T190 156Q192 191 193 215T197 260T201 305T209 365Q207 388 211 415T213 458Q220 480 222 508T231 559Q233 576 235 591T238 616Q236
636 240 653T256 675Q262 677 273 678T289 675Q297 671 300 662T302 642Q304 631 303 604T297 545T286 481Q278 440 274 398T267 314Q263 232 259 178T258 100Q258 97 260 84T265 60T271 48Q279 49 286 62T300 92T313 123Q326 148 339 177T363 234Q381 276 399
306T433 373Q439 389 454 419T484 476Q501 502 516 526T553 590Q582 638 598 656T630 674Q641 676 643 675T653 663Q661 652 661 641T652 609T615 552Q595 522 571 482T526 407T496 354Q491 343 487 331T475 309Q465 299 448 266T415 201Q397 159 387 136T370 97T357
68T342 33Q337 16 329 -2T319 -27Q312 -38 301 -46T278 -58T260 -58Z" />
<glyph unicode="W" horiz-adv-x="720" d="M498 -53Q485 -54 475 -48T460 -31Q456 -26 448 -14T438 10Q435 42 435 72T437 156Q440 200 448 241T465 316T479 368T481 388Q477 388 469 374T451 338T431 297T414 263Q400 232 382 198T344 131T311 75Q302 65 290 47T264
8T235 -25Q213 -46 192 -48T155 -37Q152 -33 149 -28T143 -13T144 8Q143 22 144 51T150 116T158 185T167 240Q176 304 191 371T220 506Q228 526 234 551T248 599Q249 621 258 628T278 634T297 621Q307 611 312 590T304 537Q284 488 266 418T232 247Q228 223 223
190T214 126T209 74T209 52Q217 50 231 64T256 103Q297 171 337 245T415 393Q432 422 449 456T483 520Q500 550 514 574T538 615T554 633Q570 632 581 626T601 599Q603 594 600 582T593 561Q592 554 585 532T571 483Q561 456 554 430T543 386Q535 343 523 292T503
190T493 99Q492 71 493 55T499 30Q501 22 511 20T529 27Q549 52 563 72T591 114T618 163Q643 209 669 265T720 378T763 476Q782 530 793 562T814 610T833 632Q838 636 847 636T865 628Q869 624 872 616T875 595Q870 579 858 544T829 467T798 387T772 326Q761 305
751 290T741 267Q741 263 731 243T706 193T672 133T638 76T611 36Q586 5 563 -15T522 -44T498 -53Z" />
<glyph unicode="X" horiz-adv-x="524" d="M633 643Q653 642 659 627T657 584T625 523Q602 500 599 484Q592 475 578 459T547 424T518 391T501 374Q487 362 470 346T439 317T421 298Q414 291 408 284T397 274Q396 270 391 265T384 254Q382 253 371 243T347 221T323
198T311 186Q300 176 277 152T226 97T172 39T129 -10T109 -36Q105 -44 97 -46T80 -47Q76 -49 72 -49T65 -47Q65 -47 63 -42T59 -26Q53 -16 56 -7T63 13Q70 26 77 35T101 59T153 108Q169 124 185 138T203 156Q204 160 211 167T225 184Q232 189 248 204T285 239T324
278T357 309Q363 317 371 325T390 346Q391 348 403 360T433 390T465 424T489 450Q529 497 561 537T607 606Q617 627 621 634T633 643ZM492 -27Q473 -25 454 -8T412 51Q375 102 347 174T308 331Q303 366 297 391T289 419Q288 423 290 424T293 426Q296 429 294 432T290
441Q290 441 285 464T277 521Q273 557 271 583T266 618Q263 620 263 624T263 628Q265 634 269 638T276 646Q291 657 305 651T329 626T339 582Q339 556 345 550Q344 548 344 535T346 506T350 475T353 456Q349 444 353 439Q354 431 356 418T357 399Q356 394 359 382T366
356L392 266Q400 234 407 210T424 162T448 109Q459 85 474 65T501 37Q503 35 511 35T522 37Q533 40 538 34T546 18T549 -2Q551 -9 543 -15T521 -25T492 -27Z" />
<glyph unicode="Y" horiz-adv-x="504" d="M330 267L295 311Q275 341 263 367T246 431Q239 455 237 476T235 524T237 593Q238 631 245 648T257 673Q267 685 275 676T289 646T294 595Q297 488 309 425T344 348Q356 345 365 349T393 373T449 433Q476 462 504 495T558
558T604 609T637 638Q641 644 645 647T654 650T658 651Q666 649 667 639T675 618Q677 614 678 610T678 600Q678 597 674 593T666 584T656 574Q643 563 616 536T559 477T510 420Q466 369 432 332T389 288Q388 286 375 274T357 254L330 267ZM259 -68Q255 -67 247
-62T229 -49Q222 -41 221 -34T223 -14T234 26Q235 49 243 82T264 137Q264 148 269 167T281 206T295 242L313 294L353 328L381 297Q377 291 374 283T366 256T351 197Q343 170 334 139T316 81T302 37Q290 -8 284 -32T274 -63T259 -68Z" />
<glyph unicode="Z" horiz-adv-x="522" d="M122 -36Q101 -34 84 -31T63 -7Q61 7 66 21T82 46Q99 64 119 86T168 136T237 202T336 292Q376 326 400 348T443 390T485 433Q520 469 546 503T578 557Q584 577 576 585T546 597T489 603Q427 608 380 603T288 589Q281 587
272 592T262 602Q266 607 266 612T258 623Q254 633 258 639T266 649Q274 653 292 654T333 660Q348 663 377 664T437 665T486 663Q522 660 555 657T612 644T645 613Q656 590 650 572T632 524Q620 502 592 466T527 390T452 315Q396 263 352 223T263 144Q235 120 207
95T151 43Q141 30 147 24T195 19Q218 20 231 23T259 29T301 33Q353 36 399 39T473 42Q481 42 486 40T502 24Q511 21 513 16T513 4T501 -9Q494 -9 477 -12T439 -18T402 -20Q389 -19 353 -21T274 -29Q237 -35 193 -36T122 -36Z" />
<glyph unicode="[" horiz-adv-x="330" d="M81 -129Q64 -121 60 -109T68 -79Q73 -76 77 -68T81 -53Q81 -46 86 -22T100 34T118 97T134 150T145 177Q145 182 152 199T176 242Q192 293 213 352T258 468T300 567T332 629Q335 642 337 651T340 664Q340 684 350 692T389
701Q418 705 438 706T480 711T536 727Q551 730 566 737T585 744Q597 747 603 746T617 731Q631 715 630 708T606 692Q589 687 562 680T507 667T455 658Q436 653 423 649T406 641Q404 638 397 625T382 596T367 567T361 552Q359 550 351 535T333 499T315 460T305 432Q303
426 295 406T277 363T264 329Q260 319 255 302T244 268T234 242Q234 239 232 227T224 207Q220 200 215 187T206 162Q202 155 198 149T194 138Q194 135 194 129T189 112Q186 108 186 103T185 98Q181 94 177 76T164 36Q156 11 151 -10T145 -40L140 -68L170 -62Q188
-59 215 -56T269 -50T310 -47Q328 -43 335 -43T348 -45T361 -57Q365 -65 367 -70T366 -79Q364 -82 345 -86T301 -94T255 -102Q239 -102 229 -102T218 -102Q218 -111 185 -111Q174 -117 156 -121T131 -129Q109 -138 101 -138T81 -129Z" />
<glyph unicode="\" horiz-adv-x="330" d="M339 -104Q335 -104 331 -103T326 -98Q308 -94 312 -80Q312 -76 309 -61T300 -24T289 23T276 73T263 118T253 149Q253 154 252 158T252 166Q251 170 249 176T247 188Q243 191 242 201T242 218Q241 226 239 234T233 242Q232
245 228 268T218 326T205 400T192 475T183 536T179 569Q181 577 178 588T173 611Q171 649 177 676T195 714T226 718Q231 713 232 705T229 674Q228 663 232 629T243 549T257 455T270 366T279 302Q286 280 287 265T287 246Q287 246 287 241T290 234Q294 230 295 226T296
219Q296 217 299 204T306 174T316 140T326 115Q326 102 328 93T329 79Q329 78 330 73T335 59T341 40T346 19Q354 -3 361 -16T371 -38T372 -57Q373 -68 371 -76T357 -92Q347 -99 343 -101T339 -104Z" />
<glyph unicode="]" horiz-adv-x="330" d="M120 -111Q116 -111 107 -111T87 -109Q80 -110 64 -110T30 -108Q15 -109 1 -106T-18 -104Q-18 -104 -23 -101T-33 -92L-47 -82L-35 -77Q-31 -72 -15 -67T23 -59T62 -53T85 -53Q88 -53 98 -54T119 -55L155 -52L165 -25Q167
-13 168 -1T170 16Q176 21 179 29T182 43Q185 51 190 69T202 107Q204 123 214 150T228 203Q234 223 242 246T253 282Q255 297 262 313T270 344Q279 372 294 418T327 518T359 617Q370 639 375 659T381 680Q381 680 362 679T313 675Q250 671 223 670T191 668T184
671Q181 674 180 674T176 675Q172 674 168 678T163 690Q163 699 179 706T224 718T289 728Q333 733 345 732T361 730Q372 733 389 736T423 740T447 736Q450 736 456 731T463 715Q471 701 471 698T465 686Q461 680 453 665T436 631T422 599T417 582Q417 579 416 577T410
573Q410 573 408 572T405 566Q407 558 402 544T393 529Q393 529 391 528T388 522Q388 518 386 508T378 484Q368 449 358 426T348 400Q348 400 345 393T340 379Q336 371 332 353T326 318Q317 305 310 287T301 262Q298 252 297 243T295 234Q295 231 291 213T280 174T268
144Q268 140 263 120T250 74Q246 51 241 30T234 4Q234 1 230 -2T225 -11Q225 -15 225 -21T220 -32Q217 -37 217 -42T217 -48Q220 -48 219 -50T218 -52Q215 -52 215 -59T214 -72Q214 -93 211 -102T195 -112T155 -111Q131 -108 125 -108T121 -110T125 -112T120 -111Z"
/>
<glyph unicode="^" horiz-adv-x="446" d="M134 302Q129 306 129 315T132 340T143 374Q160 408 167 424T186 453Q195 469 211 487T247 521T286 547T321 555Q330 554 342 536T369 491T396 432T421 374T440 329Q445 317 441 307T429 292T412 287T401 301Q396 316
393 325T381 352T353 411Q337 438 328 457T313 486T296 493Q283 489 265 472T227 425T185 349Q174 316 162 305T134 302Z" />
<glyph unicode="_" horiz-adv-x="446" d="M117 -8Q111 -8 102 -8T82 -3Q67 -3 62 0T53 11Q42 26 51 31T97 41Q114 45 147 47T220 51T294 54T349 55Q375 55 384 53T404 40Q419 25 415 12T388 2Q383 2 373 1T350 -1T325 -3Q319 -3 292 -4T230 -6T163 -7T117 -8Z" />
<glyph unicode="`" horiz-adv-x="353" d="M347 441Q335 432 331 436T320 457Q314 469 303 486T282 520T267 551T268 575Q281 586 290 592T310 587Q317 583 326 567T345 529T361 491T367 467Q368 464 365 459T358 448T347 441Z" />
<glyph unicode="a" horiz-adv-x="437" d="M107 36Q103 44 97 48T91 57Q91 61 91 65T86 74Q81 80 87 101T107 154T140 221Q148 229 156 242T168 259Q168 263 171 266T178 270V276Q178 281 187 293T211 319T240 347T265 367Q286 381 308 384T347 374Q350 371 357
364T373 349T393 331L430 298L412 248Q399 208 405 178T425 126Q430 115 445 105T475 93Q483 92 490 87T497 71Q497 61 493 55T479 47Q446 43 418 63T365 129Q361 135 355 151T347 173Q343 168 332 155T315 135Q244 63 193 39T107 36ZM143 92Q143 85 164 92T211
120Q245 149 279 184T335 249L357 285Q347 308 336 316T316 325Q303 325 278 301T223 237T168 149Q158 129 151 111T143 92Z" />
<glyph unicode="b" horiz-adv-x="435" d="M211 17Q191 19 187 22T176 38Q168 47 167 52T166 61Q171 61 175 61T180 65Q180 68 183 69T191 69Q210 68 239 81T303 119T371 174Q397 208 409 227T423 259T420 281Q416 289 391 288T335 266Q292 239 266 216T218 164Q210
154 203 140T190 116T185 106Q185 102 174 96T154 90Q150 92 144 97T135 112Q128 117 125 120T121 127Q120 133 124 146T135 187Q141 213 148 241T163 289T173 311Q173 311 177 320T181 341Q183 353 187 362T192 375Q196 378 204 399T224 454Q224 457 231 473T248
512T268 559T286 603Q298 620 304 634T318 652Q323 653 330 652T345 646T358 634Q361 629 362 625T359 611T344 576T310 505Q282 445 264 398T234 315T212 253L207 231L232 255Q247 266 265 282T297 310Q305 316 318 322T345 334T364 340Q367 341 379 343T408 345Q430
345 443 335T470 303Q481 282 479 256T463 206Q458 202 453 196T448 185Q447 178 430 157T396 116Q378 97 352 79T301 46T257 25Q249 24 234 22T211 17Z" />
<glyph unicode="c" horiz-adv-x="355" d="M209 11Q180 6 156 14T118 43T103 96Q100 126 110 165T139 245T182 314Q202 338 222 358T258 385Q272 391 284 392T305 394Q321 390 339 380T358 357Q358 357 360 355T363 352Q369 352 373 339T379 310T374 282Q370 263
360 249T342 235Q338 235 335 235T331 229Q331 224 326 225T314 231T305 245Q305 250 309 262T317 293Q323 321 316 329T289 330Q264 316 242 291T200 227T166 128Q160 105 161 88T166 70Q180 66 204 68T239 77Q255 85 275 98T310 123Q315 126 322 133T337 144Q345
156 351 158T369 160Q377 158 384 154T393 146T390 139Q386 139 386 137T385 134Q387 130 377 118T350 90T320 65T299 54Q289 54 289 48Q289 46 275 38T242 22T209 11Z" />
<glyph unicode="d" horiz-adv-x="393" d="M362 -19Q349 -22 341 -16T328 3Q320 26 317 53T315 102L317 123L278 92Q244 62 213 49T157 36Q146 38 135 44T116 59T102 78Q96 92 98 116T110 168T134 224T168 273Q201 323 239 334T314 323Q340 312 346 313T358 336Q362
352 366 368T379 413Q404 489 422 532T456 607Q467 630 474 635T490 640Q501 640 510 632T524 610Q528 601 528 595T521 577Q508 553 491 514T456 427T423 334T398 253Q392 231 388 197T380 128T377 65T378 29Q384 9 384 -1T378 -14T362 -19ZM193 92Q207 95 220
103T249 122Q279 145 301 164T330 222Q332 241 327 252T309 274Q297 282 277 281T234 259Q210 237 188 200T154 109Q152 99 160 93T193 92Z" />
<glyph unicode="e" horiz-adv-x="325" d="M276 35Q255 17 228 14T174 22T131 58Q114 80 109 108T108 183Q111 222 133 261T186 332T249 375Q264 385 274 385T307 382Q330 379 341 373T360 357Q375 342 380 328T385 299Q381 277 356 246T289 194Q267 187 241 188T198
201Q179 209 173 199T162 148Q158 110 168 93T195 72Q215 68 226 67T255 75Q271 85 275 86T281 90T294 103Q301 110 305 113T314 117Q319 117 323 113T331 106Q341 106 336 94T314 66T276 35ZM275 247Q286 252 298 261T318 282T327 302Q327 316 314 325T275 328Q264
325 250 314T224 288T204 263T198 250Q201 245 215 243T246 241T275 247Z" />
<glyph unicode="f" horiz-adv-x="291" d="M123 -106Q117 -110 110 -104T88 -82Q81 -74 79 -65T80 -31Q84 -20 84 -10T85 4Q85 10 88 32T96 78T103 116Q103 117 104 121T106 128Q108 137 111 152T118 189Q126 214 131 238T137 272Q137 290 151 298Q152 303 157
313T166 331Q186 388 199 421T226 480Q232 497 239 515T255 543Q260 556 278 576T316 616T348 646Q370 657 383 661T417 665Q436 665 442 661T462 644Q476 629 478 624T480 605Q478 592 470 572T452 535T436 517Q424 513 419 519T413 541Q413 548 410 554T406 561Q406
564 407 571T413 586Q418 596 416 601T402 603Q399 601 386 591T359 569T333 545T322 531Q322 531 318 523T303 501Q296 491 291 482T285 470Q285 466 285 462T279 457Q279 457 276 448T265 425Q261 415 255 405T245 390H246Q246 390 242 378T232 352T227 336Q227
332 241 332T276 335T312 343Q326 347 331 347T351 343Q359 338 364 329T372 311T372 298Q371 294 350 287T308 276Q290 272 264 267T219 258T199 251Q195 251 192 247T189 239Q189 225 185 218Q183 212 178 194T168 154T159 114T155 90Q149 83 148 73T147 54Q143
46 142 40T141 29Q141 28 141 25T140 19Q139 9 138 -7T136 -40L133 -69Q132 -82 130 -91T123 -106Z" />
<glyph unicode="g" horiz-adv-x="355" d="M205 -191Q177 -202 147 -188T94 -142Q90 -136 85 -124T75 -98T69 -75T71 -63Q74 -60 81 -61T94 -66T103 -76Q106 -83 112 -94T127 -114T139 -124Q158 -133 167 -132T183 -126Q200 -113 211 -92T236 -27Q247 10 258 51T279
116Q282 128 286 136T295 149H301Q279 135 262 117T219 88Q213 81 190 80T144 85Q130 93 124 97T114 108T104 130Q97 145 102 179T120 247Q132 272 155 301T204 353T251 383Q259 387 268 388T296 385Q313 383 322 378T351 355Q364 342 372 329T386 302Q393 287
392 275T380 249Q371 236 361 223T346 187Q341 157 330 120T311 50L295 -12Q270 -97 248 -138T205 -191ZM169 129Q189 130 207 137T242 160T276 203Q293 227 300 253T305 305Q304 321 300 326T283 329Q264 326 241 309T198 265Q183 245 173 217Q163 187 161 160T169
129Z" />
<glyph unicode="h" horiz-adv-x="464" d="M136 54Q129 53 122 54T107 61Q99 69 96 73T94 88T101 119Q106 135 113 163T128 220Q131 236 136 253T148 284T157 307Q165 335 172 356T191 404T218 478Q240 538 251 569T268 615T276 638Q276 646 280 650T292 654Q306
654 314 641T325 609T319 574Q303 538 285 489T250 392T218 311Q218 307 215 297T208 279Q204 271 201 264T197 257Q197 253 194 242T186 215Q182 203 177 184T169 152Q174 161 190 179T220 210Q236 224 256 241T288 266Q300 274 309 280T319 287Q319 291 322 291T330
292Q334 292 334 293T335 298Q335 303 346 307T373 313T399 316Q411 316 418 311T436 289Q448 273 451 251T447 204Q447 196 445 182T442 151L436 119H452Q460 119 467 117T474 114Q478 110 482 107T490 103Q502 103 499 94T484 76Q460 60 441 60T405 76Q389 93
385 114T389 167Q393 211 393 231T383 252Q373 252 348 239T292 202T231 151T181 93Q169 78 158 67T136 54Z" />
<glyph unicode="i" horiz-adv-x="187" d="M111 32Q103 40 100 52T97 76T102 96Q102 104 104 108T106 117Q105 121 108 131T114 150Q121 166 129 188T144 233T156 271T162 291Q162 303 178 304Q190 308 196 305T212 285Q220 277 218 261T205 221Q201 213 196 198T188
171Q184 163 179 149T169 121Q167 116 165 107T160 87T152 68Q143 27 136 20T111 32ZM208 438Q203 443 199 452T194 470T196 479Q204 480 215 496T224 524Q224 528 227 531T234 536Q246 544 257 539T279 517Q288 498 284 486T262 451Q247 431 235 429T208 438Z"
/>
<glyph unicode="j" horiz-adv-x="204" d="M60 -194Q38 -216 4 -216T-55 -190Q-67 -171 -73 -149T-80 -111T-69 -94Q-64 -94 -60 -97T-53 -105T-50 -119Q-50 -134 -43 -146T-23 -158Q-12 -162 6 -152T36 -124Q46 -111 60 -83T89 -25T111 25Q123 66 132 109T152
201Q156 228 161 247T167 271Q167 275 168 287T174 310Q174 325 176 336T179 352Q182 355 187 354T199 350T211 342Q219 334 221 326T223 301T216 247Q216 241 213 223T205 181T195 137T187 101Q183 86 178 68T172 43Q171 37 165 20T153 -15T145 -39Q144 -43 140
-58T121 -104Q116 -116 105 -135T81 -170T60 -194ZM218 485Q207 498 210 519T230 561Q243 576 258 578T286 569Q297 552 297 542T286 515Q261 487 246 481T218 485Z" />
<glyph unicode="k" horiz-adv-x="365" d="M112 5Q104 8 95 17T80 40T74 64Q79 75 87 102T107 166Q115 177 119 192T128 219Q136 235 147 260T168 312T187 357Q200 384 209 406T228 452T249 502Q261 530 273 559T295 611T307 645Q307 653 310 657T318 661Q322 665
326 665T334 666Q338 666 349 651T361 624Q361 608 346 564T302 464Q268 390 247 343T218 272T212 245Q212 245 226 251T256 270Q267 276 280 285T305 302T325 313Q337 321 350 328T367 340Q384 348 392 345T410 330Q421 317 414 308T381 282Q360 269 331 251T279
219T253 202Q253 202 261 187T277 160Q285 144 294 131T304 112Q315 81 337 67T383 64Q403 72 412 69T426 54Q430 46 429 43T415 27Q396 8 377 3T341 6Q326 5 304 25T241 99Q241 103 238 110T230 125Q226 133 220 142T214 152Q214 156 211 161T203 173Q187 178
180 167T165 144Q160 131 153 108T141 62T138 32Q138 16 133 11T112 5Z" />
<glyph unicode="l" horiz-adv-x="169" d="M130 0Q111 -5 100 8T86 48T92 112Q97 124 100 135T103 154Q105 164 111 183T124 224T137 261T146 282Q150 282 153 289T156 303Q156 311 159 321T167 335Q167 340 169 346T172 357Q172 361 174 365T177 373Q184 386 195
414T220 478T246 547T265 604T273 633Q273 641 277 645T289 649Q292 652 296 653T305 654Q305 654 309 650T321 638Q329 631 330 622T332 601Q332 588 329 578T317 549T289 490Q281 470 272 453T263 431Q263 427 260 419T252 399Q248 391 241 376T227 343T214 313T209
298Q209 294 209 290T204 282Q200 282 200 277T199 271Q199 261 183 218Q167 163 154 117T140 43Q140 19 139 12T130 0Z" />
<glyph unicode="m" horiz-adv-x="560" d="M551 42Q546 44 536 52T519 79T512 134Q513 164 513 181T506 198Q498 198 476 183T424 141T365 83Q355 72 346 63T327 51T306 57L295 66Q290 71 289 76T290 89L313 155Q329 191 335 207T341 228T338 232Q330 231 314 223T293
206Q289 206 281 197T261 180Q254 168 234 149T193 110Q180 99 168 83T147 55T135 43Q122 43 112 50T96 73Q88 90 96 120T114 200Q118 215 119 222T122 236T131 260T152 308Q159 327 160 336T162 350Q162 360 167 367T181 377T196 378Q207 376 215 367T225 342Q226
330 223 321T217 303L206 276Q201 265 193 244T179 206T173 185Q174 182 180 186T195 199T215 216Q236 236 262 254T313 286T350 303Q367 303 373 297T396 275Q403 268 404 257T403 236Q402 232 397 217T388 187T383 173Q383 173 394 183T420 204T441 222Q480 252
509 260T556 239Q568 228 568 215T569 170Q570 157 571 139T573 107T577 89Q580 85 588 83T611 78Q626 76 629 65T616 44Q601 35 583 36T551 42Z" />
<glyph unicode="n" horiz-adv-x="450" d="M454 46Q434 46 421 54T399 83Q395 97 393 114T390 147T393 168Q397 172 397 182T396 205Q395 225 387 227T362 221Q344 210 315 192T255 151T195 105Q173 81 169 69T156 56Q148 52 143 55T127 67Q120 75 113 82T104 94Q104
99 107 115T114 147T121 168Q126 168 129 178T141 200Q143 212 151 232T167 269Q181 293 186 309T194 349Q193 353 196 356T203 360V360V360Q211 368 222 365T242 349Q260 325 257 300T224 227Q217 211 214 203T210 189Q210 189 220 196T244 212T266 227Q271 232
289 245T327 270T358 285Q366 289 375 292T388 296Q396 296 408 288T432 268T445 248Q445 244 445 240T447 232Q451 219 451 197T450 157T443 136Q443 136 443 134T448 131Q448 127 448 127T448 126Q443 126 444 118T450 99T462 83Q474 71 472 61T454 46Z" />
<glyph unicode="o" horiz-adv-x="353" d="M169 15Q156 15 149 20T130 34Q111 54 103 72T98 108Q101 116 101 123T100 131Q95 136 97 137T101 143Q107 143 105 154Q103 162 113 189T138 240Q144 250 156 266T182 299T209 326Q234 347 253 357T294 372Q316 377 324
377T348 361Q371 351 381 337T395 296Q398 266 391 228T343 132Q318 96 297 79T247 44Q226 30 209 24T169 15ZM265 121Q289 148 303 172T331 233Q335 244 336 260T336 291T328 308Q316 315 299 313T262 293Q231 267 208 229T163 141Q148 105 156 84T193 68T265
121Z" />
<glyph unicode="p" horiz-adv-x="378" d="M61 -224Q57 -224 51 -224T40 -216Q36 -211 36 -201T40 -165Q45 -148 48 -132T51 -107Q51 -103 53 -92T56 -75Q61 -67 64 -53T67 -28Q67 -16 79 -6Q79 2 82 14T86 30Q89 44 99 79T125 160T156 248T183 321Q195 349 199
369T204 400Q204 404 206 406T215 417Q225 427 232 423T251 411Q259 398 262 389T262 358Q262 343 257 332T248 316T246 311Q287 330 318 331T371 321T404 286T415 235Q415 223 410 207T398 177T384 157Q380 157 376 151T368 136Q360 126 343 114T308 94T283 89Q283
89 281 89T278 83Q278 81 262 75T225 63T188 57Q167 57 158 65Q156 63 154 59T151 52Q151 46 147 30T136 -2T125 -17Q125 -17 123 -20T125 -28Q125 -28 125 -39T119 -59Q119 -67 116 -83T109 -107Q109 -119 106 -130T98 -142Q94 -143 93 -154T92 -171Q91 -196 82
-210T61 -224ZM182 110Q190 110 215 117T266 134T306 156Q332 179 346 208T344 265Q336 279 315 277T269 260T222 225Q210 212 200 193T184 155T176 123T182 110Z" />
<glyph unicode="q" horiz-adv-x="377" d="M246 -220Q234 -212 229 -205T219 -177Q214 -150 218 -106T236 -8T267 99Q272 107 273 115T273 128Q226 106 202 97T161 87Q148 87 134 98T111 125T102 158Q102 174 119 205T156 264Q164 278 183 296T223 330T257 354Q265
359 273 362T289 370Q297 375 304 378T315 381Q331 385 351 385T384 381Q396 373 407 355T422 317Q422 307 421 299T415 276T395 232Q379 208 369 185T358 158Q353 145 344 124T326 86T315 62Q313 52 306 27T292 -29T278 -87Q270 -131 270 -164T278 -209Q282 -221
272 -224T246 -220ZM163 149Q196 139 229 159T294 209Q311 225 326 249T350 294T356 324Q352 332 327 323T270 289Q234 261 210 234T174 178L163 149Z" />
<glyph unicode="r" horiz-adv-x="360" d="M119 35Q110 42 107 49T106 76Q109 104 114 125T126 175Q128 187 137 216T161 279T189 343T213 389Q221 395 232 394T252 385Q263 376 256 354T225 283Q213 256 207 243T202 227T211 229Q217 240 233 254T267 283T301
308T323 322Q331 327 341 330T356 336Q379 347 403 344T433 326Q434 318 439 314T445 310Q449 310 449 307T450 304Q450 297 440 296T413 293Q400 292 390 288T366 278Q328 256 294 235T227 179Q220 171 213 160T198 136Q193 131 188 114T180 82T176 63Q176 63
173 54T163 35Q151 19 143 19T119 35Z" />
<glyph unicode="s" horiz-adv-x="341" d="M161 -4Q142 4 125 17T103 40Q103 49 106 52T123 56T171 51Q183 51 201 53T234 59T252 69Q257 69 254 72T247 80Q243 80 238 83T229 87Q229 92 220 98T200 109Q178 127 162 141T150 161Q150 165 150 165T150 166Q143 166
135 186T126 222Q126 234 133 252T152 291T177 324Q195 341 222 360T275 395T320 416Q338 423 353 423T381 416Q391 411 399 402T414 383T423 366Q423 354 421 340T416 314T405 303Q405 303 403 303T400 297Q400 287 385 274Q366 261 352 259T335 269Q332 273 331
276T326 279Q326 279 323 282T320 292Q320 296 323 299T326 303Q331 303 339 314T353 339T360 358Q360 364 359 365T349 366Q335 360 315 350T278 331T252 313Q248 306 247 305T242 303Q242 307 236 300T220 279T202 254T189 235Q187 233 185 224T182 206Q178 194
183 190T205 171Q240 145 260 128T290 100T302 80Q320 50 313 34T279 6Q269 1 246 -2T199 -5T161 -4Z" />
<glyph unicode="t" horiz-adv-x="331" d="M179 7Q168 9 157 18T137 40T125 63Q125 65 123 68T120 71Q116 74 116 97T118 150T125 196Q130 212 140 239T157 289L184 347L144 358Q137 360 133 366T128 376Q128 384 137 395T150 407Q155 406 168 406T195 407T211
409Q215 411 219 414T225 425Q230 436 234 445T245 467Q252 480 256 489T271 514Q276 521 282 531T297 548Q306 556 315 556T340 542Q348 532 349 527T341 508Q333 491 323 474T303 440Q287 418 297 415T353 419Q382 424 395 417T410 392Q413 368 405 363T359 358Q335
354 318 354T293 353Q280 352 276 352T264 350Q256 348 253 344T245 331Q241 327 233 310T213 273Q199 231 189 190T173 109Q169 84 174 75T200 63Q211 62 235 63T274 69Q285 74 297 79T319 91Q328 96 337 101T346 107Q351 115 357 112T367 97Q367 85 362 72T325
41Q280 13 243 8T179 7Z" />
<glyph unicode="u" horiz-adv-x="370" d="M339 2Q329 12 319 29T303 70Q301 78 301 92T301 112Q298 105 292 98T279 85Q275 81 261 70T233 51Q200 30 179 28T138 50Q122 63 116 79T115 123Q117 158 125 191T158 281Q179 322 190 341T204 365Q219 370 229 365T241
345Q247 335 240 311T214 252Q200 218 189 184T175 126T187 97Q196 92 218 100T269 140T325 237Q333 257 337 272T342 307Q340 319 343 328T359 345Q363 350 370 354T379 354L395 355Q399 356 400 351T407 341Q418 332 413 302T385 218Q366 177 360 156T352 115Q352
97 359 81T381 52Q392 45 393 36T394 15Q392 6 383 1T361 -5T339 2Z" />
<glyph unicode="v" horiz-adv-x="331" d="M183 61Q176 67 166 97T146 167T130 242Q126 262 122 276T114 299Q109 317 111 329T125 348Q130 351 137 352T149 353Q161 349 171 317T189 231Q193 200 199 178T205 152Q209 144 214 137T228 137Q232 141 244 155T269
185Q290 213 302 231T331 269Q338 279 347 291T365 313T383 326Q407 330 409 316T391 274Q383 262 379 252T370 237Q362 221 345 197T312 152T290 125Q286 121 273 110T247 82Q223 59 209 54T183 61Z" />
<glyph unicode="w" horiz-adv-x="517" d="M177 45Q162 45 150 63T132 111T128 173Q128 205 131 224T139 263Q142 269 142 273T144 286T151 316Q155 333 159 344T167 359Q172 365 180 366T196 365T209 354Q215 349 215 332T213 296T204 269Q202 264 200 243T195
199T189 162Q186 144 192 133T217 132T267 188Q288 218 299 237T316 272T330 308Q335 324 339 334T348 348Q355 353 364 352T386 343Q398 331 398 315T386 274Q378 258 371 233T359 183T354 141Q354 121 359 118T373 114Q385 114 402 123T440 154Q449 163 462 180T487
217T508 252T517 271Q517 277 526 288Q532 296 535 300T549 310Q557 314 563 312T576 301Q581 297 581 289T582 269Q579 258 573 241T559 208T546 186Q542 182 532 172T514 149Q489 119 478 110T459 93Q438 72 415 62T372 51T337 61Q306 77 306 115Q306 123 304
129T301 136Q297 136 291 134T277 120Q268 103 249 86T209 57T177 45Z" />
<glyph unicode="x" horiz-adv-x="343" d="M391 3Q387 3 381 4T370 9Q366 9 356 12T338 19Q328 23 311 35T277 63T249 91T237 110Q237 115 232 115Q232 115 229 118T226 126Q226 136 216 136Q216 136 199 122T162 88Q134 60 121 48T99 35Q91 35 81 41T64 55T56
72Q56 72 76 95T125 142L189 205L178 243Q171 259 164 276T152 306Q140 323 140 327T147 344V344V344Q155 352 160 354T178 349Q184 349 194 333T212 297T221 269Q221 253 233 256T269 275Q281 286 288 293T295 301Q298 304 313 314T344 336T365 349Q373 355 383
350T400 334T407 312Q407 300 401 293T375 275Q357 262 344 252T316 231T279 200L253 179L269 152Q273 145 280 132T295 115Q301 107 318 93T351 68T370 56Q374 56 379 53T391 46Q399 38 401 28T402 11T391 3Z" />
<glyph unicode="y" horiz-adv-x="341" d="M79 -199Q55 -206 27 -202T-23 -184T-48 -155Q-49 -149 -45 -142T-34 -133T-22 -136Q-14 -141 7 -148T54 -151Q77 -146 99 -124T136 -83Q144 -71 163 -40T202 28T237 98Q240 106 244 117T254 135Q260 147 264 157T270
172Q271 177 279 192T294 222Q299 237 309 266T329 313Q341 336 348 350T365 368V368V368Q374 375 377 375T392 369Q404 357 407 346T405 318T384 273Q376 249 367 230T352 204Q347 192 341 178T329 151Q311 111 298 86T275 40T254 -9Q231 -46 210 -79T164 -142Q154
-151 139 -163T109 -185T79 -199ZM214 41Q199 43 185 59T162 93T156 119Q156 124 156 127T156 130Q150 130 146 145T139 184T137 235T138 286Q142 303 142 323T143 356Q142 372 146 377T154 386V386V386Q182 398 191 372T196 273Q194 233 196 193T207 123T234 82Q241
78 241 71T237 57T227 45T214 41Z" />
<glyph unicode="z" horiz-adv-x="315" d="M140 28Q102 23 83 22T55 24T34 38Q25 46 27 57T61 100Q80 123 100 143T136 177Q143 183 152 189T181 210T240 250Q259 265 270 273T288 286T304 298Q297 299 274 301T230 301Q202 301 194 301T178 304H163Q158 304 145
308T121 320T109 334Q109 334 115 337T125 345Q133 350 137 353T146 352Q146 352 165 352T208 354Q266 353 293 351T334 342T361 324Q377 308 374 293T360 266Q356 262 353 258T346 253Q346 253 332 244T298 222Q279 209 261 198T238 182Q231 178 221 172T207 161Q204
157 194 147T171 129Q162 121 150 109T128 88T119 79Q119 79 139 81T189 86T248 87Q295 88 322 89T364 91T387 86Q394 84 399 78T407 66T408 56Q404 56 377 54T315 49Q269 45 226 39T140 28Z" />
<glyph unicode="{" horiz-adv-x="330" d="M176 -127Q167 -113 167 -119Q167 -119 162 -116T151 -106Q143 -95 142 -85T141 -58Q141 -48 141 -39T141 -30Q146 -25 147 -18T149 -4Q151 4 159 29T178 82T196 127Q207 148 215 169T223 201Q223 217 210 228T173 243Q143
243 153 272Q157 284 169 291T195 294Q210 294 229 309T266 349T293 404Q305 436 311 466T321 546Q324 585 331 611T353 659T392 704Q406 722 421 730T447 744Q467 752 487 752T514 747Q519 745 524 736T533 718T534 707Q529 707 521 705T498 702Q479 698 463 689T426
663Q410 642 401 629T390 597Q383 579 380 568T375 542T370 498Q367 468 365 451T359 419T345 381Q332 344 316 317T276 270Q259 260 258 256T265 241Q265 237 270 228T275 208Q282 192 276 169T246 92Q239 77 233 61T227 37Q222 30 217 13T208 -18Q204 -39 201
-53T198 -70Q198 -89 243 -82Q260 -77 266 -78T279 -88Q290 -98 286 -106T259 -121Q244 -129 228 -132T198 -134T176 -127Z" />
<glyph unicode="|" horiz-adv-x="330" d="M150 -140Q131 -145 120 -132T106 -92T112 -28Q117 -16 120 -5T123 14Q125 22 133 49T152 113T175 184T195 244T206 272Q210 272 213 279T216 293Q216 301 219 311T227 325Q227 330 229 336T232 347Q232 351 234 355T237
363Q243 374 255 404T284 476T318 562T350 647T374 713T383 743Q383 751 387 755T399 759Q402 762 406 763T415 764Q415 764 419 760T431 748Q439 741 440 732T442 711Q442 698 439 688T427 659T399 600Q396 592 387 572T368 527T347 479T330 439T323 421Q323 417
320 409T312 389Q308 381 301 366T287 333T274 303T269 288Q269 284 269 280T264 272Q260 272 260 267T259 261Q259 251 243 208Q236 186 226 152T205 80T183 5T167 -58T160 -97Q160 -121 159 -128T150 -140Z" />
<glyph unicode="}" horiz-adv-x="330" d="M141 -111Q114 -112 96 -105T78 -87Q78 -82 81 -79T84 -76Q89 -80 90 -80T91 -76Q91 -76 101 -73T128 -63Q157 -58 171 -51T192 -30T204 9Q207 21 209 31T212 46Q212 49 213 78T213 147Q211 191 211 211T212 241T220 261Q228
269 229 276T229 294Q221 314 223 330T233 353Q250 372 260 383T279 405T297 435Q323 476 342 516T368 587Q368 591 368 594T368 597Q372 606 369 620T354 649Q346 665 334 673T296 688Q280 691 279 701T287 722Q291 730 301 732T322 732T337 724Q345 716 352 716Q355
716 366 707T389 684T406 661Q410 658 413 645T418 619Q421 607 421 599T420 580T410 549Q396 503 385 473T368 437Q364 434 361 433T357 428Q357 424 348 408T328 374T307 347Q303 343 300 336T296 328Q296 328 295 328T289 324Q282 320 282 313T289 289Q291 280
295 273T303 258Q303 244 298 244Q285 237 279 229T271 199T271 127Q272 106 271 82T269 40T264 15Q257 -15 252 -35T241 -55Q241 -55 239 -55T238 -59Q238 -73 224 -84T188 -103T141 -111Z" />
<glyph unicode="~" horiz-adv-x="446" d="M357 201Q335 201 317 208T279 229Q269 235 256 246T222 265Q206 270 195 262T172 243T147 230Q146 224 139 217T127 214Q116 217 109 224T103 237Q104 243 114 256T145 284T200 311Q220 314 243 307T283 283Q306 262
325 253T363 251Q371 252 388 258T410 266L436 273Q438 275 441 278T448 282Q449 285 462 286Q476 291 479 285T480 268Q480 264 477 257T464 239L444 230Q430 227 415 219T389 207Q371 201 357 201Z" />
<glyph unicode="&#xa0;" horiz-adv-x="242" />
<glyph unicode="&#xa1;" horiz-adv-x="210" d="M25 -227Q25 -227 22 -223T11 -211Q4 -203 3 -195T1 -174Q3 -154 15 -130T44 -78Q54 -59 63 -42T73 -21Q73 -17 77 -9T86 11Q92 21 99 35T112 61T117 75Q119 79 120 83T125 91Q129 91 129 96T130 102Q130 106 134
120T149 155Q168 208 176 239T186 293Q188 317 190 321T199 329Q228 334 236 302T231 214Q225 202 221 191T217 172Q214 159 207 142T193 109T183 88Q179 88 175 82T170 67Q170 59 167 49T159 35Q159 31 155 25T151 14Q151 10 149 8T146 0Q137 -16 123 -47T94 -114T69
-176T59 -209Q58 -217 54 -220T41 -223Q37 -226 33 -226T25 -227ZM239 406Q209 425 212 448T253 489Q272 497 284 496T312 484Q331 466 325 448T292 411Q274 400 266 400T239 406Z" />
<glyph unicode="&#xa2;" horiz-adv-x="450" d="M214 -54Q186 -60 184 -28T197 59Q206 72 209 84T214 103Q217 113 230 139T258 196T286 250T302 278Q306 278 311 285T317 299Q317 307 320 317T329 330Q329 335 333 341T338 351Q339 354 341 356T344 363Q351 374
364 400T395 460T431 531T464 600T489 654T499 680Q505 696 519 693Q525 699 535 695Q535 695 538 692T549 681Q554 672 555 663T556 642Q554 629 549 620T533 592T501 536Q496 527 484 508T459 468T437 432T427 415Q427 410 411 384Q407 376 399 361T382 330T367
302T360 288Q360 281 351 272Q347 272 346 267T345 261Q345 257 340 244T324 214Q313 186 298 153T268 86T243 27T230 -13Q229 -37 226 -44T214 -54ZM334 186Q321 180 304 181T258 192Q255 192 249 196T237 206T226 221Q210 244 213 289T241 397Q248 412 262 435T291
477T312 500Q312 500 323 504T351 517Q356 519 362 521T376 524T388 524Q408 523 429 510T465 479T474 448Q474 446 469 441T457 430T446 419Q441 413 433 414T418 422T410 442Q408 450 396 457T383 464Q375 464 361 450T332 415Q314 397 301 373T281 327T270 296Q266
286 269 268T276 246Q280 244 296 245T336 249T381 258T417 269Q436 281 450 283T471 283Q482 279 484 272T479 257T455 239Q439 231 427 222T414 207Q410 207 406 205T398 203Q396 203 382 200T354 193T334 186Z" />
<glyph unicode="&#xa3;" horiz-adv-x="450" d="M439 -48Q409 -63 369 -60T296 -35Q293 -32 284 -28T267 -23Q260 -18 244 -17T216 -13Q194 -8 185 -8T160 -13Q133 -22 101 -20T47 -9T24 16Q24 33 34 42T73 54Q105 57 118 59T135 64T143 75Q149 95 155 123T171
208Q174 234 184 277T209 368T245 459Q271 512 297 554T349 624T403 655Q430 663 457 657T501 633Q502 640 511 630T530 605T541 578Q544 568 547 560T551 552Q555 549 555 543T554 533Q553 525 548 519T529 502Q515 495 503 496T485 507T480 538Q482 555 472 577T448
604Q437 609 421 599T383 572Q374 557 367 551T360 544Q360 544 352 530T333 496Q322 474 308 436T279 357T253 281T236 229Q235 219 231 191T221 130T214 75L216 50L252 38Q263 34 280 26T314 16Q328 7 344 3T374 -1Q399 -1 418 5T439 19Q443 19 446 23T450 33Q455
33 461 35T474 38Q491 38 496 30T497 8T477 -20T439 -48ZM341 283Q337 283 319 283T276 284T225 286T176 287T143 288Q137 288 128 288T108 293Q93 293 88 296T79 307Q68 322 77 327T123 337Q140 341 172 342T241 343T311 342T365 341Q391 341 400 339T420 326Q435
311 431 298T404 288Q397 287 378 286T341 283Z" />
<glyph unicode="&#xa4;" horiz-adv-x="450" d="M141 26Q136 22 132 29T127 46T130 60Q126 65 130 65T136 64Q131 70 133 78T142 95T153 108Q152 112 155 114T160 125Q171 132 183 132Q183 146 188 149T199 156Q204 161 205 167T201 171Q200 173 195 182T185 194Q183
214 183 237T187 277Q190 277 191 290T199 309Q198 313 202 318T210 325Q211 327 213 328T215 335Q215 335 218 341T228 357Q234 373 236 380T239 391T235 404Q216 419 201 441T189 474Q188 476 186 478T182 485Q177 492 178 502T184 517T193 518Q192 518 196 518T205
506Q209 500 213 495T222 484Q227 485 231 474T243 456Q256 438 265 431T275 421Q277 419 282 424T298 435Q307 440 313 441T327 444T347 446L375 444L417 499Q449 540 460 546T478 539Q486 537 487 527T486 512Q485 514 482 506T474 493Q469 483 462 470T451 450Q439
447 438 441T434 430Q434 430 437 425T449 413Q455 411 463 402T473 374Q479 370 482 359T487 337T486 325Q485 324 485 323T482 314Q484 310 477 292T456 251T426 209L402 184L415 170Q420 162 431 150T453 128T470 119Q474 119 477 108T481 85T479 68Q473 60
465 63T441 84Q420 100 404 124T383 156Q385 165 378 163T365 156Q338 144 308 136T261 131Q250 136 247 135T233 124Q232 120 225 110T210 90T195 74Q188 57 180 49T174 35Q172 33 165 29T150 23T141 26ZM313 189Q344 205 373 230T419 289Q429 309 430 333T423
369Q408 388 377 392Q357 394 348 391T323 381Q300 371 290 357T262 311Q239 277 233 247T243 206Q251 196 270 192T313 189Z" />
<glyph unicode="&#xa5;" horiz-adv-x="450" d="M237 673Q247 685 255 676T269 646T274 595Q277 488 289 425T324 348Q336 345 345 349T373 373T429 433Q456 462 484 495T538 558T584 609T617 638Q621 644 625 647T634 650T638 651Q646 649 647 639T655 618Q657
614 658 610T658 600Q658 597 654 593T646 584T636 574Q623 563 596 536T539 477T490 420Q446 369 412 332T369 288Q368 286 355 274T337 254L310 267L275 311Q255 341 243 367T226 431Q219 455 217 476T215 524T217 593Q218 631 225 648T237 673ZM239 -68Q235
-67 227 -62T209 -49Q202 -41 201 -34T203 -14T214 26Q215 49 223 82T244 137Q244 148 249 167T261 206T275 242L293 294L333 328L361 297Q357 291 354 283T346 256T331 197Q323 170 314 139T296 81T282 37Q270 -8 264 -32T254 -63T239 -68ZM165 116Q159 116 150
116T130 121Q115 121 110 124T101 135Q90 150 99 155T145 165Q162 169 194 170T263 171T333 170T387 169Q413 169 422 167T442 154Q457 139 453 126T426 116Q422 116 400 117T350 119T297 121T263 121Q257 121 247 120T223 118T194 117T165 116ZM490 296Q505 281
501 268T474 258Q469 258 459 257T436 255T411 253Q407 253 389 253T346 254T295 256T246 257T213 258Q207 258 198 258T178 263Q163 263 158 266T149 277Q138 292 147 297T193 307Q210 311 242 312T311 313T381 312T435 311Q461 311 470 309T490 296Z" />
<glyph unicode="&#xa6;" horiz-adv-x="330" d="M297 356Q294 346 284 346T263 352T247 368T247 385Q258 411 275 453T310 543T345 636T372 709T383 743Q383 759 399 759Q402 762 406 763T415 764Q415 764 419 760T431 748Q439 741 440 732T442 711Q442 698 439
688T427 659T399 600Q396 592 387 572T368 527T347 479T330 439T323 421Q323 417 320 409T312 389Q309 384 306 376T297 356ZM150 -140Q122 -147 111 -116T112 -28Q117 -16 120 -5T123 14Q125 22 133 49T152 113T175 184T195 242Q196 250 205 249T225 242T242 228T245
213L243 208Q236 186 226 152T205 80T183 5T167 -58T160 -97Q160 -121 159 -128T150 -140Z" />
<glyph unicode="&#xa7;" horiz-adv-x="385" d="M331 189Q293 179 262 190T216 224Q209 238 209 243T216 253Q224 254 230 253T248 247Q263 234 284 235T324 247T344 271Q338 273 334 282T326 303Q258 380 258 432Q254 444 257 458T267 486T283 513Q309 542 341
567T400 605Q411 605 429 605T454 603Q461 601 469 593T484 573T493 550Q493 543 491 532T484 503Q480 492 475 483T470 469Q469 458 460 457T441 462T426 480Q422 495 421 504T423 525Q434 538 434 542T423 544Q416 544 398 534T362 507T331 474Q319 460 316 452T312
436T313 418Q313 409 318 396T329 374T341 363Q341 363 349 350T373 321Q408 263 399 233T331 189ZM255 9Q217 0 186 9T140 45Q133 58 133 63T140 74Q148 75 154 71T172 62Q187 52 208 55T248 68T268 90Q267 94 261 104T250 125Q217 157 200 193T182 254Q176 272
185 292T209 327Q226 353 247 371T288 405L320 349Q303 341 286 324T255 291Q241 273 239 265T237 240Q237 226 247 205T265 177Q265 177 274 164T297 140Q332 79 323 50T255 9Z" />
<glyph unicode="&#xa8;" horiz-adv-x="353" d="M262 450Q255 457 251 467T247 482Q249 487 254 501T267 522Q270 524 273 528T281 534Q293 542 303 537T319 515Q328 501 325 491T309 463Q294 443 282 441T262 450ZM390 450Q383 457 379 467T375 482Q377 487 382
501T395 522Q398 524 401 528T409 534Q421 542 431 537T447 515Q456 501 453 491T437 463Q422 443 410 441T390 450Z" />
<glyph unicode="&#xa9;" horiz-adv-x="496" d="M354 92Q289 91 245 116T183 193Q172 213 170 228T163 260Q162 262 162 265T160 270Q159 274 159 285T160 306T161 319Q165 322 164 325T163 329Q159 339 165 362T182 412T203 458T218 480Q220 480 220 483T221 487Q225
492 242 503T281 527T318 548Q382 580 436 560T534 477Q538 463 547 451T556 432Q565 418 571 400T579 369T578 352Q580 349 579 345T579 339Q582 335 582 321T580 291T576 262T571 249Q571 249 569 248T569 245Q571 244 566 237T553 224T539 216Q539 216 539 215T542
213Q544 212 535 200T509 173T473 143T437 123Q434 120 433 119T429 115Q422 105 398 98T354 92ZM288 153Q304 140 338 145T413 174Q429 181 449 196T485 227T500 252Q499 257 500 263T506 270Q515 278 520 301T526 350T519 389Q518 391 514 398T510 409Q510 414
508 418T499 435T472 473Q440 498 414 503T370 505T346 498Q302 485 277 461T240 410T222 360Q213 331 210 315T208 288T219 262Q218 249 222 237T225 221Q226 216 236 201T261 171T288 153ZM354 218Q346 214 337 214T305 222Q303 222 297 228T284 241Q273 258
275 289T296 358Q299 369 306 381T321 405T335 424T343 434Q343 434 348 436T371 445Q378 447 385 448T392 450Q405 449 417 444T438 430T452 414T455 398Q454 396 449 390T440 378Q437 372 432 372T422 378T416 392Q402 412 388 410T364 394T349 369Q336 354 332
329T325 295Q323 285 324 274T329 261Q341 257 355 257T388 267T432 295Q440 301 442 298T446 289T453 282Q452 264 440 251T415 232Q411 232 407 231T399 229Q395 229 379 225T354 218Z" />
<glyph unicode="&#xaa;" horiz-adv-x="350" d="M229 324Q219 324 211 326T197 333L195 334L189 346Q186 349 184 351T182 354Q182 357 182 361T179 368H180Q175 373 179 392T195 440T221 499Q226 504 230 511T238 525L244 535L243 534Q243 536 245 539T251 543V549Q251
555 264 572T294 607T322 633Q340 647 361 649T396 638L432 599L463 568L450 524Q446 512 445 501T443 480Q443 460 449 441T463 406Q471 391 494 387Q502 385 509 381T517 366Q517 358 512 352T497 343Q470 339 445 360T401 417Q399 421 395 429T389 444Q385 437
380 432T371 422Q327 373 292 349T229 324ZM235 383Q237 381 250 388T280 410Q302 433 330 467T377 527L394 556Q385 576 378 583T367 591Q357 591 338 570T297 513T254 435Q249 424 243 405T235 383Z" />
<glyph unicode="&#xab;" horiz-adv-x="646" d="M406 2Q398 1 379 1T328 16Q292 35 275 44T242 72Q208 92 190 113T154 165L130 207L123 237Q131 239 142 248T154 258Q163 269 175 281T208 311T264 360Q301 387 314 401T338 425Q344 432 352 439T364 447Q370 449
373 448T381 444Q392 437 402 436T414 427Q414 427 412 419T402 405Q389 394 374 383T337 353T275 299Q251 278 234 262T209 232T202 205Q208 192 226 170T275 121T353 69Q378 57 395 43T417 18T406 2ZM606 2Q598 1 579 1T528 16Q492 35 475 44T442 72Q408 92 390
113T354 165L330 207L323 237Q331 239 342 248T354 258Q363 269 375 281T408 311T464 360Q501 387 514 401T538 425Q544 432 552 439T564 447Q570 449 573 448T581 444Q592 437 602 436T614 427Q614 427 612 419T602 405Q589 394 574 383T537 353T475 299Q452 278
435 262T409 232T402 205Q408 192 426 170T475 121T553 69Q578 57 595 43T617 18T606 2Z" />
<glyph unicode="&#xac;" horiz-adv-x="465" d="M478 137Q468 127 459 126T444 131T440 153L435 216L432 255L403 253Q397 253 370 252T308 250T241 249T195 248Q189 248 180 248T160 253Q145 253 140 256T131 267Q120 282 129 287T175 297Q192 301 225 303T298
307T372 310T427 311Q453 311 462 309T482 296Q502 275 490 263Q492 247 492 230T493 192Q493 167 491 158T478 137Z" />
<glyph unicode="&#xad;" horiz-adv-x="326" d="M178 178Q172 178 163 178T143 183Q128 183 123 186T114 197Q103 212 112 217T158 227Q192 235 221 238T290 241Q316 241 325 239T345 226Q360 211 356 198T329 188Q322 187 303 186T266 183Q255 182 231 180T178 178Z" />
<glyph unicode="&#xae;" horiz-adv-x="496" d="M354 92Q289 91 245 116T183 193Q172 213 170 228T163 260Q162 262 162 265T160 270Q159 274 159 285T160 306T161 319Q165 322 164 325T163 329Q159 339 165 362T182 412T203 458T218 480Q220 480 220 483T221 487Q225
492 242 503T281 527T318 548Q382 580 436 560T534 477Q538 463 547 451T556 432Q565 418 571 400T579 369T578 352Q580 349 579 345T579 339Q582 335 582 321T580 291T576 262T571 249Q571 249 569 248T569 245Q571 244 566 237T553 224T539 216Q539 216 539 215T542
213Q544 212 535 200T509 173T473 143T437 123Q434 120 433 119T429 115Q422 105 398 98T354 92ZM307 221Q304 212 297 210T283 211T271 222T269 239Q271 250 276 264T287 295Q287 303 288 310T291 317Q293 326 298 347T326 398Q326 410 327 415T323 426Q320 431
320 435T331 447Q331 453 340 455T372 455Q384 454 390 453T400 448Q414 447 426 441T438 432Q446 425 451 415T457 396Q457 384 456 377T443 356Q436 343 423 329T393 302L381 289Q382 285 389 277T404 260T417 250Q425 252 429 250T431 230Q424 216 421 215T404
224Q392 226 387 230T375 241Q368 247 359 253T335 273Q335 273 334 273T321 275L313 254Q313 250 312 241T307 221ZM288 153Q304 140 338 145T413 174Q429 181 449 196T485 227T500 252Q499 257 500 263T506 270Q515 278 520 301T526 350T519 389Q518 391 514
398T510 409Q510 414 508 418T499 435T472 473Q440 498 414 503T370 505T346 498Q302 485 277 461T240 410T222 360Q213 331 210 315T208 288T219 262Q218 249 222 237T225 221Q226 216 236 201T261 171T288 153ZM343 315Q360 320 373 331T390 351Q393 353 397
357T410 373Q412 377 413 380T414 397Q418 405 411 410Q407 414 400 416T382 422Q381 421 379 419T369 410Q368 406 366 397T356 384Q354 378 350 362T342 331T343 315Z" />
<glyph unicode="&#xaf;" horiz-adv-x="353" d="M301 461Q295 461 287 461T269 465Q254 465 249 467T240 477Q231 492 239 497T281 507Q315 512 342 515T407 518Q430 518 439 516T459 506Q472 491 469 479T443 468Q436 467 419 466T383 465Q374 465 351 463T301 461Z" />
<glyph unicode="&#xb0;" horiz-adv-x="283" d="M333 426Q295 426 274 437T242 464T225 491Q217 506 213 529T207 562Q207 572 210 588T221 622T236 651Q249 675 263 686T292 710Q307 717 316 720T335 724Q371 724 402 711T451 671T470 602Q470 568 463 546T442
507T411 470Q406 464 395 454T369 435T333 426ZM322 478Q334 478 354 492T390 533T405 591Q404 631 395 651T362 671Q310 671 293 638T275 554Q275 541 278 523T292 492T322 478Z" />
<glyph unicode="&#xb1;" horiz-adv-x="446" d="M178 248Q172 248 163 248T143 253Q128 253 123 256T114 267Q103 282 112 287T158 297Q175 301 208 303T281 307T355 310T410 311Q436 311 445 309T465 296Q480 281 476 268T449 258Q444 258 434 257T411 255T386
253Q380 253 353 252T291 250T224 249T178 248ZM178 18Q172 18 163 18T143 23Q128 23 123 26T114 37Q103 52 112 57T158 67Q175 71 208 73T281 77T355 80T410 81Q436 81 445 79T465 66Q480 51 476 38T449 28Q444 28 434 27T411 25T386 23Q380 23 353 22T291 20T224
19T178 18ZM304 137Q289 128 284 135T274 172Q270 186 268 212T264 270T261 329T260 373Q260 394 262 401T275 417Q290 429 303 426T313 405Q314 399 315 384T318 354Q318 350 319 328T321 278T322 224T323 188Q323 183 323 176T318 160Q318 148 315 144T304 137Z"
/>
<glyph unicode="&#xb2;" horiz-adv-x="320" d="M211 345Q206 347 196 355T182 371Q182 375 184 381T191 393T197 399Q198 399 201 405T207 419T211 429L221 437L225 439H223L234 450L244 460H243L264 482Q269 487 276 494T291 511Q308 528 321 543T335 562Q335
562 339 566T347 573L366 590Q369 597 376 608T389 626L407 662Q409 669 407 671T392 678H393Q380 681 366 681Q354 681 341 677T310 662Q306 661 302 660T293 656Q287 653 282 652T268 653Q268 653 268 653T262 660L253 671L244 688L271 704Q299 721 328 730T377
732Q385 731 392 730T399 728Q407 727 417 720T436 702T449 681V682Q454 675 456 668T458 652Q458 639 453 624T434 591Q431 586 418 571T388 538T359 506T340 487Q335 484 322 472T295 445T272 419T263 408L266 406Q266 406 272 408Q287 414 313 418T364 425T394
425Q402 427 420 426T451 419Q452 419 453 418T456 417Q457 416 460 416Q468 413 471 408Q474 402 477 399Q485 392 486 387T483 380T467 379T437 383Q431 383 422 383T408 380Q405 379 400 379T386 378Q385 378 383 378T379 377H373Q361 379 347 376T317 368Q308
365 285 359T239 348T211 345Z" />
<glyph unicode="&#xb3;" horiz-adv-x="320" d="M294 310Q263 310 238 321T213 349Q214 364 220 365T247 365Q272 359 300 364T353 381T391 409Q408 428 408 449Q408 459 403 469T387 486Q375 497 348 505T304 515Q297 513 291 514T274 522Q270 527 267 532T261
541L257 547Q256 555 269 564T327 601L332 603H331L337 607Q365 625 384 637T414 658T433 673H432Q442 687 442 693T431 704Q414 706 398 706T378 702Q374 704 362 702T338 697T326 692Q325 690 316 687T298 681T286 678Q282 679 277 686T267 703T263 718Q266 722
274 728T292 740T311 750Q322 753 342 754T383 757T412 757H413Q448 753 469 736T494 691Q497 675 492 664T465 629L461 625L451 618Q443 612 432 605T409 589L398 582L391 577L383 570L376 565L363 555L380 542Q400 532 419 513T447 481Q452 469 454 459T457 437Q457
409 442 386T397 342Q377 329 349 321T294 310Z" />
<glyph unicode="&#xb4;" horiz-adv-x="353" d="M347 444Q340 451 337 465T334 483Q335 488 347 503T377 536T409 568T432 585Q443 592 453 583T473 557Q476 548 466 536T438 509T405 482T380 457Q370 441 365 438T347 444Z" />
<glyph unicode="&#xb5;" horiz-adv-x="370" d="M69 -173Q62 -170 54 -163T41 -148T36 -133Q36 -121 46 -90T69 -16T96 73T118 162Q123 185 131 213T158 281Q179 322 190 341T204 365Q209 367 213 367T220 367Q228 366 234 361T241 345Q244 340 244 332T240 311T230
284T214 252Q200 218 189 184T175 126T187 97Q192 94 201 94T223 101T251 121Q268 137 287 165T325 237Q333 257 337 272T342 307Q337 332 359 345Q363 350 370 354T379 354Q383 354 387 354T395 355Q399 356 400 351T407 341Q411 338 412 332T414 318Q414 303
407 278T385 218Q366 177 360 156T352 115Q352 77 381 52Q392 45 393 36T394 15Q392 6 383 1T361 -5T339 2Q329 12 319 29T303 70Q301 78 301 92T301 112Q298 105 292 98T279 85Q275 81 261 70T233 51Q202 32 182 29T144 43Q141 33 139 23T133 3Q119 -40 109 -69T92
-118T81 -147T74 -164Q73 -168 72 -169T69 -173Z" />
<glyph unicode="&#xb6;" horiz-adv-x="424" d="M181 -47Q169 -36 167 -25T173 -2Q173 1 176 10T184 30Q190 52 199 77T218 125T235 158Q239 168 241 180T248 200Q253 211 259 223T271 243Q275 262 280 276T286 291Q275 293 262 292T219 296Q192 306 176 333T166
409Q176 441 188 474T230 530Q260 552 280 564T322 585T375 607Q383 607 406 608T456 614Q500 611 528 605T570 588T581 562Q580 555 580 550T573 537Q570 532 564 519T550 491T535 464Q531 457 521 433T500 379Q487 354 480 335T473 315Q473 315 469 308T460 292Q459
283 450 260T429 214Q419 189 408 162T395 120Q388 107 380 85T361 44L349 2H330Q325 5 318 7T306 16Q304 24 304 29T308 55Q313 65 317 74T326 88Q331 91 332 99T334 109Q334 117 340 127T349 142Q353 154 355 161T357 168Q357 174 366 190Q370 198 375 210T384
234Q387 242 390 253T398 264Q398 267 400 275T403 291Q408 300 412 311T420 330Q425 337 428 341T431 346Q428 346 432 357T445 385Q449 390 454 408T463 439Q470 453 480 475T501 515Q506 532 509 545T513 562Q511 562 500 564T477 565T461 553Q460 549 452 534T430
497Q422 475 410 451T394 412Q387 397 380 381T366 349Q362 342 355 326T343 292Q339 283 331 264T313 220T294 174T275 138Q272 128 270 118T266 102Q266 97 257 73T237 18T215 -40Q208 -50 203 -51T181 -47Z" />
<glyph unicode="&#xb7;" horiz-adv-x="187" d="M158 248Q153 253 149 262T144 280T146 289Q151 290 158 297T170 315T174 334Q174 344 184 346Q196 354 207 349T229 327Q238 308 234 296T212 261Q197 241 185 239T158 248Z" />
<glyph unicode="&#xb8;" horiz-adv-x="353" d="M160 -178Q145 -181 124 -179T85 -172T61 -165Q49 -161 46 -153T45 -137T56 -124T74 -122Q90 -127 109 -133T145 -139T168 -125Q175 -114 171 -104T155 -81Q148 -72 138 -60T117 -37Q109 -25 107 -14T120 13T184
53L217 30Q192 18 177 7T161 -17Q175 -37 192 -55T214 -94Q220 -118 215 -135T195 -163T160 -178Z" />
<glyph unicode="&#xb9;" horiz-adv-x="320" d="M359 310Q355 306 350 307T338 312T326 323Q322 328 322 338T326 367Q327 372 328 377T330 386Q335 414 339 429T344 444Q348 446 355 469T371 524Q373 532 376 544T383 566Q386 579 389 591T396 616Q401 630 404
643T411 671Q402 665 388 654T356 629Q348 624 339 617T321 602Q314 596 307 590T291 579Q270 560 264 557T247 561Q239 568 235 575T230 590T232 604Q234 605 246 613T270 631Q278 637 281 640T288 645Q294 650 300 654T313 664Q319 670 328 678T356 699Q360 703
364 706T373 713Q377 716 381 719T389 726Q408 739 424 748T451 763T465 767Q467 766 476 759T489 743Q489 741 489 738T489 731T487 723T484 716Q481 707 475 687T461 642T446 593T433 552Q429 539 426 527T420 507Q419 506 419 504T418 500Q414 490 411 480T404
449Q396 429 389 403T379 360Q378 355 376 350T372 340Q369 330 366 322T359 310Z" />
<glyph unicode="&#xba;" horiz-adv-x="283" d="M250 313Q237 313 229 319T209 337Q196 353 191 368T189 401Q191 406 190 412T189 419L191 418Q187 422 187 423T190 427L188 426Q188 427 189 427T190 429L196 431Q196 431 195 434T193 439Q194 446 197 459T207
489T221 518Q226 527 235 541T256 570T278 594Q298 613 313 622T348 636H347Q367 642 375 642T396 627Q413 617 423 603T436 566Q438 540 432 506T394 418Q374 387 356 372T315 339H316Q300 326 286 321T250 313ZM260 364Q270 364 285 375T321 411Q339 434 351
455T373 511Q375 518 376 527T377 545Q377 556 376 564T373 575H374Q366 580 354 578T328 562Q306 541 288 506T252 427Q249 417 247 407T244 391Q244 364 260 364Z" />
<glyph unicode="&#xbb;" horiz-adv-x="708" d="M436 0Q430 -2 427 -1T419 3Q409 11 399 11T386 20Q386 20 388 28T398 42Q412 54 426 65T464 95T525 148Q560 180 580 201T598 242Q589 262 553 300T447 378Q423 390 405 404T383 429T394 445Q402 446 421 446T472
431Q508 412 525 403T558 375Q592 356 611 334T646 282L670 240L677 210Q672 209 665 204T653 195T646 189Q637 178 625 166T592 136T536 87Q499 60 486 46T462 22Q456 15 449 8T436 0ZM236 0Q230 -2 227 -1T219 3Q209 11 199 11T186 20Q186 20 188 28T198 42Q212
54 226 65T264 95T325 148Q360 180 380 201T398 242Q389 262 353 300T247 378Q223 390 205 404T183 429T194 445Q202 446 221 446T272 431Q308 412 325 403T358 375Q392 356 411 334T446 282L470 240L477 210Q472 209 465 204T453 195T446 189Q437 178 425 166T392
136T336 87Q299 60 286 46T262 22Q256 15 249 8T236 0Z" />
<glyph unicode="&#xbc;" horiz-adv-x="800" d="M267 -14Q249 -11 244 4T246 43T275 97Q284 105 291 111T300 125Q304 132 321 152T362 199T407 250T446 293T463 314Q467 313 472 318T479 331Q482 339 489 345T503 353Q505 358 508 361T512 368Q513 372 516 375T521
382Q530 390 552 411T603 462T663 523T721 583T765 630T784 652Q791 665 803 659Q810 663 819 659Q819 659 820 655T826 640Q831 630 830 623T823 605Q818 594 812 586T791 565T746 525Q740 519 726 505T693 473T658 439T630 411T617 398Q613 397 608 393T597 378Q589
370 572 353T540 322T524 304Q522 301 518 299T508 295Q507 296 506 293T504 290Q504 286 496 275T470 249Q453 229 426 196T370 126T319 60T291 18Q283 -1 279 -7T267 -14ZM319 210Q315 206 310 207T298 212T286 223Q282 228 282 238T286 267Q287 272 288 277T290
286Q295 314 299 329T304 344Q308 346 315 369T331 424Q334 435 337 445T343 466Q346 479 349 491T356 516Q359 529 363 543T371 571Q362 565 348 554T316 529Q308 524 299 517T281 502Q274 496 267 490T251 479Q230 460 224 457T207 461Q199 468 195 475T190 490T192
504Q194 505 206 513T230 531Q238 537 244 542T253 548Q254 548 255 549T257 551Q272 563 285 574T316 599Q320 603 326 608T349 626Q368 639 384 648T411 663T425 667Q427 666 436 659T449 643Q449 641 449 638T449 631T447 623T444 616Q441 607 435 587T421 542T406
493T393 452Q389 439 386 427T380 407Q379 406 379 404T378 400Q374 390 371 380T364 349Q356 329 349 303T339 260Q338 255 336 250T332 240Q329 230 326 222T319 210ZM688 -37Q684 -30 684 -18T690 21Q693 45 700 74Q702 83 704 91T707 107Q714 123 717 133T720
144Q717 143 712 142T698 136Q685 133 674 132T651 130Q632 130 620 138T600 159Q596 164 593 174T590 194T594 209V208L600 224L607 243Q609 249 611 254T613 258Q613 258 613 260T615 263Q617 267 617 271Q620 279 632 298T659 341T687 384T706 410L707 411Q712
414 718 416T729 418T738 412Q740 406 741 393T741 376Q740 372 735 363T724 346L717 340L714 337H715Q699 312 682 282T650 223Q645 208 642 196T640 181H639Q645 180 658 181T690 189Q704 192 716 195T736 203Q740 203 744 204T748 208H752Q752 211 752 216T753
223L760 242L772 270Q776 278 780 288T792 312L809 354Q817 374 820 380T829 387Q834 387 841 384T849 373V374Q854 367 855 360T853 343Q851 336 849 330T844 318L841 309L835 296Q831 291 831 288T828 281Q817 254 801 216T772 142T752 86Q737 37 733 19T735
-10Q736 -28 726 -39T705 -50T688 -36V-37Z" />
<glyph unicode="&#xbd;" horiz-adv-x="800" d="M236 -14Q218 -11 213 4T215 43T244 97Q253 105 260 111T269 125Q273 132 290 152T331 199T376 250T415 293T432 314Q436 313 441 318T448 331Q451 339 458 345T472 353Q474 358 477 361T481 368Q482 372 485 375T490
382Q499 390 521 411T572 462T632 523T690 583T734 630T753 652Q760 665 772 659Q779 663 788 659Q788 659 789 655T795 640Q800 630 799 623T792 605Q787 594 781 586T760 565T715 525Q709 519 695 505T662 473T627 439T599 411T586 398Q582 397 577 393T566 378Q558
370 541 353T509 322T493 304Q491 301 487 299T477 295Q476 296 475 293T473 290Q473 286 465 275T439 249Q422 229 395 196T339 126T288 60T260 18Q252 -1 248 -7T236 -14ZM319 210Q315 206 310 207T298 212T286 223Q282 228 282 238T286 267Q287 272 288 277T290
286Q295 314 299 329T304 344Q308 346 315 369T331 424Q334 435 337 445T343 466Q346 479 349 491T356 516Q359 529 363 543T371 571Q362 565 348 554T316 529Q308 524 299 517T281 502Q274 496 267 490T251 479Q230 460 224 457T207 461Q199 468 195 475T190 490T192
504Q194 505 206 513T230 531Q238 537 244 542T253 548Q254 548 255 549T257 551Q272 563 285 574T316 599Q320 603 326 608T349 626Q368 639 384 648T411 663T425 667Q427 666 436 659T449 643Q449 641 449 638T449 631T447 623T444 616Q441 607 435 587T421 542T406
493T393 452Q389 439 386 427T380 407Q379 406 379 404T378 400Q374 390 371 380T364 349Q356 329 349 303T339 260Q338 255 336 250T332 240Q329 230 326 222T319 210ZM525 -5Q520 -3 510 5T496 21Q496 25 498 31T505 43T511 49Q512 49 515 55T521 69T525 79L535
87L539 89H537L548 100L558 110H557L578 132Q583 137 590 144T605 161Q622 178 635 193T649 212Q649 212 653 216T661 223L680 240Q683 247 690 258T703 276L721 312Q723 319 721 321T706 328H707Q694 331 680 331Q668 331 655 327T624 312Q620 311 616 310T607
306Q601 303 596 302T582 303Q582 303 582 303T576 310L567 321L558 338L585 354Q613 371 642 380T691 382Q699 381 706 380T713 378Q721 377 731 370T750 352T763 331V332Q768 325 770 318T772 302Q772 289 767 274T748 241Q745 236 732 221T702 188T673 156T654
137Q649 134 636 122T609 95T586 69T577 58L580 56Q580 56 586 58Q601 64 627 68T678 75T708 75Q716 77 734 76T765 69Q766 69 767 68T770 67Q771 66 774 66Q782 63 785 58Q788 52 791 49Q799 42 800 37T797 30T781 29T751 33Q745 33 736 33T722 30Q719 29 714
29T700 28Q699 28 697 28T693 27H687Q675 29 661 26T631 18Q622 15 599 9T554 -2T525 -5Z" />
<glyph unicode="&#xbe;" horiz-adv-x="800" d="M281 -14Q263 -11 258 4T260 43T289 97Q298 105 305 111T314 125Q318 132 335 152T376 199T421 250T460 293T477 314Q481 313 486 318T493 331Q496 339 503 345T517 353Q519 358 522 361T526 368Q527 372 530 375T535
382Q544 390 566 411T617 462T677 523T735 583T779 630T798 652Q805 665 817 659Q824 663 833 659Q833 659 834 655T840 640Q845 630 844 623T837 605Q832 594 826 586T805 565T760 525Q754 519 740 505T707 473T672 439T644 411T631 398Q627 397 622 393T611 378Q603
370 586 353T554 322T538 304Q536 301 532 299T522 295Q521 296 520 293T518 290Q518 286 510 275T484 249Q467 229 440 196T384 126T333 60T305 18Q297 -1 293 -7T281 -14ZM254 210Q223 210 198 221T173 249Q174 264 180 265T207 265Q232 259 260 264T313 281T351
309Q368 328 368 349Q368 359 363 369T347 386Q335 397 308 405T264 415Q257 413 251 414T234 422Q230 427 227 432T221 441L217 447Q216 455 229 464T287 501L292 503H291L297 507Q325 525 344 537T374 558T393 573H392Q402 587 402 593T391 604Q374 606 358 606T338
602Q334 604 322 602T298 597T286 592Q285 590 276 587T258 581T246 578Q242 579 237 586T227 603T223 618Q226 622 234 628T252 640T271 650Q282 653 302 654T343 657T372 657H373Q408 653 429 636T454 591Q457 575 452 564T425 529L421 525L411 518Q403 512 392
505T369 489L358 482L351 477L343 470L336 465L323 455L340 442Q360 432 379 413T407 381Q412 369 414 359T417 337Q417 309 402 286T357 242Q337 229 309 221T254 210ZM688 -37Q684 -30 684 -18T690 21Q693 45 700 74Q702 83 704 91T707 107Q714 123 717 133T720
144Q717 143 712 142T698 136Q685 133 674 132T651 130Q632 130 620 138T600 159Q596 164 593 174T590 194T594 209V208L600 224L607 243Q609 249 611 254T613 258Q613 258 613 260T615 263Q617 267 617 271Q620 279 632 298T659 341T687 384T706 410L707 411Q712
414 718 416T729 418T738 412Q740 406 741 393T741 376Q740 372 735 363T724 346L717 340L714 337H715Q699 312 682 282T650 223Q645 208 642 196T640 181H639Q645 180 658 181T690 189Q704 192 716 195T736 203Q740 203 744 204T748 208H752Q752 211 752 216T753
223L760 242L772 270Q776 278 780 288T792 312L809 354Q817 374 820 380T829 387Q834 387 841 384T849 373V374Q854 367 855 360T853 343Q851 336 849 330T844 318L841 309L835 296Q831 291 831 288T828 281Q817 254 801 216T772 142T752 86Q737 37 733 19T735
-10Q736 -28 726 -39T705 -50T688 -36V-37Z" />
<glyph unicode="&#xbf;" horiz-adv-x="374" d="M145 -217Q139 -216 132 -216T124 -213Q121 -213 112 -213T95 -213Q83 -209 70 -203T46 -190T27 -174Q20 -152 21 -120T31 -51T54 17T89 72Q95 78 111 92T145 123T173 151Q208 170 233 208T272 282Q283 306 287 310T305
314Q321 313 328 301T335 277Q335 276 335 270T332 255Q332 249 326 236T313 205Q302 186 280 161T240 123Q231 116 227 114T223 111Q223 107 209 96T185 80Q185 80 173 71T152 55Q130 32 119 13T102 -31T88 -94Q87 -128 87 -141T100 -163Q121 -174 151 -166T210
-133T254 -76Q260 -59 260 -53T258 -37Q258 -29 256 -22T253 -10Q258 -9 268 -9T289 -10T307 -14Q307 -14 311 -19T317 -30Q323 -38 323 -45T322 -68Q316 -88 304 -111T273 -156T228 -190Q207 -199 193 -206T178 -214Q178 -214 171 -214T145 -217ZM319 412Q289
431 292 454T333 495Q352 503 364 502T392 490Q411 472 405 454T372 417Q354 406 346 406T319 412Z" />
<glyph unicode="&#xc0;" horiz-adv-x="502" d="M69 -33Q51 -23 50 -11T63 31T110 124Q134 169 146 194T163 231T168 245Q166 254 170 259T183 269Q188 274 199 287T221 318Q230 339 242 361T274 416T326 504Q346 539 370 575T421 648Q432 662 441 670T459 678Q471
678 486 670T515 649T534 621Q539 613 538 587T534 524T527 445Q524 404 518 348T507 231T498 114T498 15Q499 6 498 -2T497 -15Q491 -21 478 -21T452 -14T437 1Q434 4 434 9T434 33T436 90L441 252L428 251Q419 251 394 249T340 244T287 237T253 230Q244 230 232
218T208 187Q204 173 194 158T183 137Q176 132 172 125T167 118Q167 112 158 89T134 37T106 -13L85 -45L69 -33ZM276 289Q276 289 286 291T311 295T338 298Q380 308 399 311T425 315T439 312Q443 307 446 306T450 305Q451 307 453 328T458 380T465 444T471 506T474
550Q475 569 476 584T477 600Q471 600 452 578T408 520T363 443Q353 424 344 409T330 394Q328 392 319 377T298 342T280 307T276 289ZM552 711Q544 705 540 705T532 710T525 727Q517 744 501 767T475 812T473 845Q486 856 495 862T515 857Q522 853 531 837T550
799T566 761T572 737Q573 733 567 723T552 711Z" />
<glyph unicode="&#xc1;" horiz-adv-x="502" d="M69 -33Q51 -23 50 -11T63 31T110 124Q134 169 146 194T163 231T168 245Q166 254 170 259T183 269Q188 274 199 287T221 318Q230 339 242 361T274 416T326 504Q346 539 370 575T421 648Q432 662 441 670T459 678Q471
678 486 670T515 649T534 621Q539 613 538 587T534 524T527 445Q524 404 518 348T507 231T498 114T498 15Q499 6 498 -2T497 -15Q491 -21 478 -21T452 -14T437 1Q434 4 434 9T434 33T436 90L441 252L428 251Q419 251 394 249T340 244T287 237T253 230Q244 230 232
218T208 187Q204 173 194 158T183 137Q176 132 172 125T167 118Q167 112 158 89T134 37T106 -13L85 -45L69 -33ZM276 289Q276 289 286 291T311 295T338 298Q380 308 399 311T425 315T439 312Q443 307 446 306T450 305Q451 307 453 328T458 380T465 444T471 506T474
550Q475 569 476 584T477 600Q471 600 452 578T408 520T363 443Q353 424 344 409T330 394Q328 392 319 377T298 342T280 307T276 289ZM483 714Q476 721 473 735T470 753Q471 758 483 773T513 806T545 838T568 855Q579 862 589 853T609 827Q612 818 602 806T574
779T541 752T516 727Q506 711 501 708T483 714Z" />
<glyph unicode="&#xc2;" horiz-adv-x="502" d="M69 -33Q51 -23 50 -11T63 31T110 124Q134 169 146 194T163 231T168 245Q166 254 170 259T183 269Q188 274 199 287T221 318Q230 339 242 361T274 416T326 504Q346 539 370 575T421 648Q432 662 441 670T459 678Q471
678 486 670T515 649T534 621Q539 613 538 587T534 524T527 445Q524 404 518 348T507 231T498 114T498 15Q499 6 498 -2T497 -15Q491 -21 478 -21T452 -14T437 1Q434 4 434 9T434 33T436 90L441 252L428 251Q419 251 394 249T340 244T287 237T253 230Q244 230 232
218T208 187Q204 173 194 158T183 137Q176 132 172 125T167 118Q167 112 158 89T134 37T106 -13L85 -45L69 -33ZM276 289Q276 289 286 291T311 295T338 298Q380 308 399 311T425 315T439 312Q443 307 446 306T450 305Q451 307 453 328T458 380T465 444T471 506T474
550Q475 569 476 584T477 600Q471 600 452 578T408 520T363 443Q353 424 344 409T330 394Q328 392 319 377T298 342T280 307T276 289ZM688 730Q671 713 659 715T644 730T652 757Q655 761 666 771T691 794T721 818T746 835Q755 843 763 843T777 833Q789 823 806
806T839 773T856 755Q862 747 862 737T855 719T838 714T814 733Q807 742 791 757T760 786Q748 779 734 768T707 747T688 730Z" />
<glyph unicode="&#xc3;" horiz-adv-x="502" d="M69 -33Q51 -23 50 -11T63 31T110 124Q134 169 146 194T163 231T168 245Q166 254 170 259T183 269Q188 274 199 287T221 318Q230 339 242 361T274 416T326 504Q346 539 370 575T421 648Q432 662 441 670T459 678Q471
678 486 670T515 649T534 621Q539 613 538 587T534 524T527 445Q524 404 518 348T507 231T498 114T498 15Q499 6 498 -2T497 -15Q491 -21 478 -21T452 -14T437 1Q434 4 434 9T434 33T436 90L441 252L428 251Q419 251 394 249T340 244T287 237T253 230Q244 230 232
218T208 187Q204 173 194 158T183 137Q176 132 172 125T167 118Q167 112 158 89T134 37T106 -13L85 -45L69 -33ZM276 289Q276 289 286 291T311 295T338 298Q380 308 399 311T425 315T439 312Q443 307 446 306T450 305Q451 307 453 328T458 380T465 444T471 506T474
550Q475 569 476 584T477 600Q471 600 452 578T408 520T363 443Q353 424 344 409T330 394Q328 392 319 377T298 342T280 307T276 289ZM571 729Q551 729 539 736T507 757Q498 762 483 777T456 792Q446 792 440 784T427 768T410 757Q409 752 404 745T397 742Q387
745 382 752T377 764Q378 773 392 796T440 836Q452 841 473 836T511 816Q534 795 546 786T577 784Q592 788 609 799T648 819Q655 822 661 819T670 808T672 795Q672 791 666 781T650 766Q620 749 604 741T582 731T571 729Z" />
<glyph unicode="&#xc4;" horiz-adv-x="502" d="M69 -33Q51 -23 50 -11T63 31T110 124Q134 169 146 194T163 231T168 245Q166 254 170 259T183 269Q188 274 199 287T221 318Q230 339 242 361T274 416T326 504Q346 539 370 575T421 648Q432 662 441 670T459 678Q471
678 486 670T515 649T534 621Q539 613 538 587T534 524T527 445Q524 404 518 348T507 231T498 114T498 15Q499 6 498 -2T497 -15Q491 -21 478 -21T452 -14T437 1Q434 4 434 9T434 33T436 90L441 252L428 251Q419 251 394 249T340 244T287 237T253 230Q244 230 232
218T208 187Q204 173 194 158T183 137Q176 132 172 125T167 118Q167 112 158 89T134 37T106 -13L85 -45L69 -33ZM276 289Q276 289 286 291T311 295T338 298Q380 308 399 311T425 315T439 312Q443 307 446 306T450 305Q451 307 453 328T458 380T465 444T471 506T474
550Q475 569 476 584T477 600Q471 600 452 578T408 520T363 443Q353 424 344 409T330 394Q328 392 319 377T298 342T280 307T276 289ZM574 750Q567 757 563 767T559 782Q561 787 566 801T579 822Q582 824 586 828T594 834Q606 843 616 837T632 815Q641 801 638
791T622 763Q607 742 595 740T574 750ZM445 750Q438 757 434 767T430 782Q432 787 437 801T450 822Q453 824 456 828T464 834Q472 840 479 839T493 832T503 815Q512 801 509 791T493 763Q477 742 465 740T445 750Z" />
<glyph unicode="&#xc5;" horiz-adv-x="502" d="M69 -33Q51 -23 50 -11T63 31T110 124Q134 169 146 194T163 231T168 245Q166 254 170 259T183 269Q188 274 199 287T221 318Q230 339 242 361T274 416T326 504Q346 539 370 575T421 648Q432 662 441 670T459 678Q471
678 486 670T515 649T534 621Q539 613 538 587T534 524T527 445Q524 404 518 348T507 231T498 114T498 15Q499 6 498 -2T497 -15Q491 -21 478 -21T452 -14T437 1Q434 4 434 9T434 33T436 90L441 252L428 251Q419 251 394 249T340 244T287 237T253 230Q244 230 232
218T208 187Q204 173 194 158T183 137Q176 132 172 125T167 118Q167 112 158 89T134 37T106 -13L85 -45L69 -33ZM276 289Q276 289 286 291T311 295T338 298Q380 308 399 311T425 315T439 312Q443 307 446 306T450 305Q451 307 453 328T458 380T465 444T471 506T474
550Q475 569 476 584T477 600Q471 600 452 578T408 520T363 443Q353 424 344 409T330 394Q328 392 319 377T298 342T280 307T276 289ZM528 690Q494 690 479 710T461 760Q461 779 469 801T493 839T530 855Q562 855 584 841T606 797Q606 773 597 748T570 707T528
690ZM524 730Q542 730 553 741T563 777Q562 790 558 802T537 814Q499 814 499 764Q499 754 507 742T524 730Z" />
<glyph unicode="&#xc6;" horiz-adv-x="784" d="M551 -48Q511 -48 480 -44T422 -19Q402 -3 393 18T386 71T401 150Q404 167 408 182T417 206H405Q386 203 349 204T261 209L244 188Q241 184 228 167T204 129Q194 110 180 85T149 41Q128 10 118 -1T103 -13Q94 -13
88 -12T73 -4Q54 5 58 24T88 72Q94 79 98 86T103 93Q104 95 114 111T137 148T163 184T180 203Q201 223 183 241Q176 244 178 249T187 260T204 265Q214 270 218 272T223 278Q224 280 233 294T254 328T279 365T300 392Q315 420 322 429T335 448Q341 453 353 470T376
503Q392 517 406 533T430 561Q436 572 447 585T472 612Q494 633 505 638T536 635Q547 630 571 626T623 616Q641 623 664 629T709 636Q715 640 735 642T783 644T833 642Q855 642 868 636T894 624Q899 619 901 612T905 600T906 594Q906 591 893 590T860 588T817 587Q793
587 769 584T726 578T701 575Q687 571 677 570T666 569Q664 569 654 554T631 518T609 480T599 459Q599 449 591 437T572 409Q562 396 559 386T565 371Q581 374 608 377T663 382T706 385Q723 390 734 387T750 381Q762 379 767 374T772 363T764 355Q758 349 734 341T678
325T614 311T558 300T531 297Q525 311 523 297T500 238Q489 213 481 191T467 144T455 88Q448 61 451 45T487 13Q507 9 540 10T617 22Q635 33 650 39T672 50Q677 50 687 52T702 55Q706 60 710 63T722 66Q724 66 731 59T746 42T752 30Q752 20 730 10T658 -20Q633
-31 618 -37T588 -45T551 -48ZM298 261Q298 261 322 263T375 265Q394 267 409 267T435 266Q437 275 439 281T446 291Q449 293 453 304T458 318Q458 318 459 325T464 343Q472 357 475 364T479 376Q481 380 487 388T498 409Q524 456 542 490T567 547Q554 549 539
550T507 551Q505 554 493 543T464 515T433 482T414 458Q410 453 396 432T364 387Q334 348 318 321T298 279T298 261Z" />
<glyph unicode="&#xc7;" horiz-adv-x="482" d="M214 -56Q199 -50 184 -43T155 -23T131 15Q121 44 118 72T115 137Q115 189 122 227T146 306Q148 309 153 323T166 355T178 381Q186 398 202 426T238 482Q267 525 286 550T322 592T360 624T416 663Q438 679 464 680T514
669T548 632Q559 611 559 582T550 520T525 458T488 410Q475 398 465 401T440 417Q431 434 431 437T434 441Q440 448 450 465T470 501T484 533Q492 575 495 592T489 619Q485 623 478 622T453 612Q430 602 393 568T325 491Q285 438 258 397T217 313Q215 309 211 298T206
287Q207 283 203 268T194 241Q183 195 181 146T186 58T209 5Q222 -4 244 -1T296 13T355 37Q379 47 399 59T429 80Q437 86 449 92T471 99Q485 104 487 103T489 94Q489 80 474 63T434 32Q426 24 413 15T386 1Q365 -15 334 -30T272 -53T214 -56ZM237 6Q222 3 201 5T162
12T138 19Q126 23 123 31T122 47T133 60T151 62Q167 57 186 51T222 45T245 59Q252 70 248 80T232 103Q225 112 215 124T194 147Q186 159 184 170T197 197T261 237L294 214Q269 202 254 191T238 167Q252 147 269 129T291 90Q297 66 292 49T272 21T237 6Z" />
<glyph unicode="&#xc8;" horiz-adv-x="548" d="M231 -24Q200 -22 177 -5T127 30Q110 47 100 66T84 118Q80 137 84 166T97 224T114 272Q126 300 144 332T181 394T211 442Q218 449 218 449T217 450Q217 455 227 475T246 512Q261 528 263 538T260 554Q258 558 267
568T294 591T335 617Q359 636 381 637T408 628Q408 625 419 626T446 631T474 637Q479 643 497 646T541 653Q554 652 566 652T587 654T596 655Q603 657 612 653T630 631Q637 613 626 604T573 590Q543 586 521 584T475 578T416 566Q391 561 375 555T347 536T320 500Q313
495 302 474T280 432Q252 393 232 365T215 331Q215 331 226 328T241 325Q251 330 265 332T289 336Q351 352 386 361T440 374T469 380Q483 391 496 384T518 362Q523 351 519 343T494 327T433 308T328 279Q273 263 234 260T197 277Q190 281 182 268T165 231T152 182T145
134T147 100Q155 77 168 64T215 40Q235 39 254 37T297 45Q356 55 390 66T429 81Q437 85 439 85T447 86Q444 81 449 85T465 100Q476 110 494 119T526 133T542 133Q548 123 540 106T511 68T457 28Q404 0 342 -11T231 -24ZM574 711Q566 705 562 705T554 710T547 727Q539
744 523 767T497 812T495 845Q508 856 517 862T537 857Q544 853 553 837T572 799T588 761T594 737Q595 733 589 723T574 711Z" />
<glyph unicode="&#xc9;" horiz-adv-x="548" d="M231 -24Q200 -22 177 -5T127 30Q110 47 100 66T84 118Q80 137 84 166T97 224T114 272Q126 300 144 332T181 394T211 442Q218 449 218 449T217 450Q217 455 227 475T246 512Q261 528 263 538T260 554Q258 558 267
568T294 591T335 617Q359 636 381 637T408 628Q408 625 419 626T446 631T474 637Q479 643 497 646T541 653Q554 652 566 652T587 654T596 655Q603 657 612 653T630 631Q637 613 626 604T573 590Q543 586 521 584T475 578T416 566Q391 561 375 555T347 536T320 500Q313
495 302 474T280 432Q252 393 232 365T215 331Q215 331 226 328T241 325Q251 330 265 332T289 336Q351 352 386 361T440 374T469 380Q483 391 496 384T518 362Q523 351 519 343T494 327T433 308T328 279Q273 263 234 260T197 277Q190 281 182 268T165 231T152 182T145
134T147 100Q155 77 168 64T215 40Q235 39 254 37T297 45Q356 55 390 66T429 81Q437 85 439 85T447 86Q444 81 449 85T465 100Q476 110 494 119T526 133T542 133Q548 123 540 106T511 68T457 28Q404 0 342 -11T231 -24ZM505 714Q498 721 495 735T492 753Q493 758
505 773T535 806T567 838T590 855Q601 862 611 853T631 827Q634 818 624 806T596 779T563 752T538 727Q528 711 523 708T505 714Z" />
<glyph unicode="&#xca;" horiz-adv-x="548" d="M231 -24Q200 -22 177 -5T127 30Q110 47 100 66T84 118Q80 137 84 166T97 224T114 272Q126 300 144 332T181 394T211 442Q218 449 218 449T217 450Q217 455 227 475T246 512Q261 528 263 538T260 554Q258 558 267
568T294 591T335 617Q359 636 381 637T408 628Q408 625 419 626T446 631T474 637Q479 643 497 646T541 653Q554 652 566 652T587 654T596 655Q603 657 612 653T630 631Q637 613 626 604T573 590Q543 586 521 584T475 578T416 566Q391 561 375 555T347 536T320 500Q313
495 302 474T280 432Q252 393 232 365T215 331Q215 331 226 328T241 325Q251 330 265 332T289 336Q351 352 386 361T440 374T469 380Q483 391 496 384T518 362Q523 351 519 343T494 327T433 308T328 279Q273 263 234 260T197 277Q190 281 182 268T165 231T152 182T145
134T147 100Q155 77 168 64T215 40Q235 39 254 37T297 45Q356 55 390 66T429 81Q437 85 439 85T447 86Q444 81 449 85T465 100Q476 110 494 119T526 133T542 133Q548 123 540 106T511 68T457 28Q404 0 342 -11T231 -24ZM494 730Q477 713 465 715T450 730T458 757Q461
761 472 771T497 794T527 818T552 835Q561 843 569 843T583 833Q595 823 612 806T645 773T662 755Q668 747 668 737T661 719T644 714T620 733Q613 742 597 757T566 786Q554 779 540 768T513 747T494 730Z" />
<glyph unicode="&#xcb;" horiz-adv-x="548" d="M231 -24Q200 -22 177 -5T127 30Q110 47 100 66T84 118Q80 137 84 166T97 224T114 272Q126 300 144 332T181 394T211 442Q218 449 218 449T217 450Q217 455 227 475T246 512Q261 528 263 538T260 554Q258 558 267
568T294 591T335 617Q359 636 381 637T408 628Q408 625 419 626T446 631T474 637Q479 643 497 646T541 653Q554 652 566 652T587 654T596 655Q603 657 612 653T630 631Q637 613 626 604T573 590Q543 586 521 584T475 578T416 566Q391 561 375 555T347 536T320 500Q313
495 302 474T280 432Q252 393 232 365T215 331Q215 331 226 328T241 325Q251 330 265 332T289 336Q351 352 386 361T440 374T469 380Q483 391 496 384T518 362Q523 351 519 343T494 327T433 308T328 279Q273 263 234 260T197 277Q190 281 182 268T165 231T152 182T145
134T147 100Q155 77 168 64T215 40Q235 39 254 37T297 45Q356 55 390 66T429 81Q437 85 439 85T447 86Q444 81 449 85T465 100Q476 110 494 119T526 133T542 133Q548 123 540 106T511 68T457 28Q404 0 342 -11T231 -24ZM596 750Q589 757 585 767T581 782Q583 787
588 801T601 822Q604 824 608 828T616 834Q628 843 638 837T654 815Q663 801 660 791T644 763Q629 742 617 740T596 750ZM467 750Q460 757 456 767T452 782Q454 787 459 801T472 822Q475 824 478 828T486 834Q494 840 501 839T515 832T525 815Q534 801 531 791T515
763Q499 742 487 740T467 750Z" />
<glyph unicode="&#xcc;" horiz-adv-x="400" d="M192 -31Q185 -20 161 -17T101 -16Q87 -18 74 -15T54 -4T48 12Q49 24 68 31T131 39L184 40L194 60Q198 71 204 91T217 134Q221 148 229 172T246 223T262 271T271 302Q275 311 282 332T295 376T304 409Q330 488 338
521T342 556Q338 556 323 555T289 553T256 549T238 545Q233 538 221 542T206 556Q205 565 205 570T211 578Q218 584 238 591T283 605T332 614Q349 616 366 621T393 635Q402 638 410 640T428 641Q436 636 455 636T497 637Q553 642 572 640T599 624Q604 605 601 595T581
585Q572 583 549 582T499 579Q428 573 423 565Q419 561 417 557T410 548Q411 544 406 523T392 479Q388 466 380 442T364 393T348 347T338 319Q334 310 332 300T328 284Q314 235 304 201T285 142T269 93T254 41Q254 41 269 42T311 46Q358 51 378 52T406 50T416 37Q436
10 421 0T350 -9Q298 -11 271 -12T233 -17T220 -27Q220 -35 212 -35T192 -31ZM729 711Q721 705 717 705T709 710T702 727Q694 744 678 767T652 812T650 845Q663 856 672 862T692 857Q699 853 708 837T727 799T743 761T749 737Q750 733 744 723T729 711Z" />
<glyph unicode="&#xcd;" horiz-adv-x="400" d="M192 -31Q185 -20 161 -17T101 -16Q87 -18 74 -15T54 -4T48 12Q49 24 68 31T131 39L184 40L194 60Q198 71 204 91T217 134Q221 148 229 172T246 223T262 271T271 302Q275 311 282 332T295 376T304 409Q330 488 338
521T342 556Q338 556 323 555T289 553T256 549T238 545Q233 538 221 542T206 556Q205 565 205 570T211 578Q218 584 238 591T283 605T332 614Q349 616 366 621T393 635Q402 638 410 640T428 641Q436 636 455 636T497 637Q553 642 572 640T599 624Q604 605 601 595T581
585Q572 583 549 582T499 579Q428 573 423 565Q419 561 417 557T410 548Q411 544 406 523T392 479Q388 466 380 442T364 393T348 347T338 319Q334 310 332 300T328 284Q314 235 304 201T285 142T269 93T254 41Q254 41 269 42T311 46Q358 51 378 52T406 50T416 37Q436
10 421 0T350 -9Q298 -11 271 -12T233 -17T220 -27Q220 -35 212 -35T192 -31ZM660 714Q653 721 650 735T647 753Q648 758 660 773T690 806T722 838T745 855Q756 862 766 853T786 827Q789 818 779 806T751 779T718 752T693 727Q683 711 678 708T660 714Z" />
<glyph unicode="&#xce;" horiz-adv-x="400" d="M192 -31Q185 -20 161 -17T101 -16Q87 -18 74 -15T54 -4T48 12Q49 24 68 31T131 39L184 40L194 60Q198 71 204 91T217 134Q221 148 229 172T246 223T262 271T271 302Q275 311 282 332T295 376T304 409Q330 488 338
521T342 556Q338 556 323 555T289 553T256 549T238 545Q233 538 221 542T206 556Q205 565 205 570T211 578Q218 584 238 591T283 605T332 614Q349 616 366 621T393 635Q402 638 410 640T428 641Q436 636 455 636T497 637Q553 642 572 640T599 624Q604 605 601 595T581
585Q572 583 549 582T499 579Q428 573 423 565Q419 561 417 557T410 548Q411 544 406 523T392 479Q388 466 380 442T364 393T348 347T338 319Q334 310 332 300T328 284Q314 235 304 201T285 142T269 93T254 41Q254 41 269 42T311 46Q358 51 378 52T406 50T416 37Q436
10 421 0T350 -9Q298 -11 271 -12T233 -17T220 -27Q220 -35 212 -35T192 -31ZM649 730Q632 713 620 715T605 730T613 757Q616 761 627 771T652 794T682 818T707 835Q716 843 724 843T738 833Q750 823 767 806T800 773T817 755Q823 747 823 737T816 719T799 714T775
733Q768 742 752 757T721 786Q709 779 695 768T668 747T649 730Z" />
<glyph unicode="&#xcf;" horiz-adv-x="400" d="M192 -31Q185 -20 161 -17T101 -16Q87 -18 74 -15T54 -4T48 12Q49 24 68 31T131 39L184 40L194 60Q198 71 204 91T217 134Q221 148 229 172T246 223T262 271T271 302Q275 311 282 332T295 376T304 409Q330 488 338
521T342 556Q338 556 323 555T289 553T256 549T238 545Q233 538 221 542T206 556Q205 565 205 570T211 578Q218 584 238 591T283 605T332 614Q349 616 366 621T393 635Q402 638 410 640T428 641Q436 636 455 636T497 637Q553 642 572 640T599 624Q604 605 601 595T581
585Q572 583 549 582T499 579Q428 573 423 565Q419 561 417 557T410 548Q411 544 406 523T392 479Q388 466 380 442T364 393T348 347T338 319Q334 310 332 300T328 284Q314 235 304 201T285 142T269 93T254 41Q254 41 269 42T311 46Q358 51 378 52T406 50T416 37Q436
10 421 0T350 -9Q298 -11 271 -12T233 -17T220 -27Q220 -35 212 -35T192 -31ZM751 750Q744 757 740 767T736 782Q738 787 743 801T756 822Q759 824 763 828T771 834Q783 843 793 837T809 815Q818 801 815 791T799 763Q784 742 772 740T751 750ZM622 750Q615 757
611 767T607 782Q609 787 614 801T627 822Q630 824 633 828T641 834Q649 840 656 839T670 832T680 815Q689 801 686 791T670 763Q654 742 642 740T622 750Z" />
<glyph unicode="&#xd0;" horiz-adv-x="578" d="M225 -95Q206 -98 190 -98T143 -91Q133 -88 127 -84T115 -73T99 -53Q83 -30 81 -12T95 2Q98 1 104 -4T117 -18Q131 -33 151 -38T204 -39Q218 -36 238 -31T277 -17T307 -1Q360 35 392 56T424 77Q426 81 431 83T445
89Q451 95 464 108T490 134T506 149Q508 158 510 163T512 175Q520 183 533 208T561 265T581 323Q595 393 588 441T560 523T506 585Q495 594 476 604T435 623T399 636T380 640Q377 639 366 612T338 541T303 447T268 351H286Q309 351 318 349T338 339Q351 324 348
312T322 301Q315 300 298 299T262 298Q260 298 257 298T251 297Q244 275 238 257T231 234Q220 217 214 189T199 96Q190 62 186 45T178 28L174 24Q174 18 166 18T148 22T131 33Q128 44 128 54T135 93Q140 112 147 139T164 196T181 251T193 289Q194 290 194 291T195
294H180Q174 294 166 294T148 298Q133 298 128 300T119 310Q110 325 118 330T160 340Q174 342 186 344T211 347Q212 349 212 350T213 353Q221 379 229 405T246 451T257 478Q262 491 272 522T298 591L305 624L294 629Q282 625 276 626T267 629Q261 627 250 632T231
645T220 659Q218 663 218 669T217 676Q218 684 242 691T300 701T369 702Q395 700 418 691T468 672Q500 660 535 631T600 561T640 477Q643 465 646 443T649 401T645 374Q643 370 643 365T646 357Q645 354 639 335T628 301Q626 275 616 247T594 195T572 153Q568 153
565 152T565 149Q565 145 563 142T554 130Q550 127 542 116T528 100Q527 93 522 89T513 84Q513 84 512 84T510 80Q502 68 485 52T447 18T403 -15T360 -38Q350 -45 339 -49T318 -59Q313 -63 296 -70T260 -85T225 -95Z" />
<glyph unicode="&#xd1;" horiz-adv-x="566" d="M97 -62Q87 -51 84 -44T83 -26T91 4Q99 36 108 57T127 102T144 163Q160 200 172 233T192 287T199 308Q200 312 208 329T228 370T252 420Q269 468 279 502T301 565T330 620Q342 641 358 647T388 647T409 620Q414 610
417 596T424 556T428 481Q430 424 429 369T429 266T440 186Q443 168 448 143T460 92T473 50T484 33Q489 33 497 46T519 93T552 189T595 350Q600 367 608 405T621 482Q628 507 635 537T647 590T653 616Q653 623 653 628T653 638Q658 638 662 651T666 675Q666 692
670 702T680 718Q683 726 695 726T719 719T734 703Q736 692 729 654T706 550Q706 539 700 514T688 461T678 413Q674 387 669 365T659 343Q633 230 605 151T554 21Q530 -34 502 -45T441 -16Q422 10 411 35T393 95T376 181Q361 222 360 264T362 350T368 443Q367 491
364 507T353 506T325 435Q318 416 307 389T284 336T265 290T255 265Q249 253 241 234T228 192Q192 98 175 42T149 -36Q139 -64 128 -73T97 -62ZM802 729Q782 729 770 736T738 757Q729 762 714 777T687 792Q677 792 671 784T658 768T641 757Q640 752 635 745T628
742Q618 745 613 752T608 764Q609 773 623 796T671 836Q683 841 704 836T742 816Q765 795 777 786T808 784Q823 788 840 799T879 819Q886 822 892 819T901 808T903 795Q903 791 897 781T881 766Q851 749 835 741T813 731T802 729Z" />
<glyph unicode="&#xd2;" horiz-adv-x="496" d="M175 -20Q138 8 128 23T116 61Q114 79 116 110T123 171T130 216Q135 221 135 229T134 238Q133 243 141 264T156 320Q176 380 194 420T231 490T267 543Q308 585 333 606T389 642Q409 654 426 661T454 663Q510 651
538 618T579 514Q586 470 587 435T582 365T557 289T505 193Q470 124 427 73T338 -7T250 -41T175 -20ZM239 9Q262 12 283 23T327 55T379 110Q405 140 421 160T449 202T471 253T496 331Q504 361 508 381T513 418T514 459T513 518Q512 535 506 553T492 581Q482 592
464 596T424 591Q412 586 393 569T353 528T314 481T284 439T272 413Q272 413 272 408T267 398Q254 384 239 348T209 267T186 177T174 99Q172 72 172 62T176 47T189 26Q195 16 209 11T239 9ZM547 711Q539 705 535 705T527 710T520 727Q512 744 496 767T470 812T468
845Q481 856 490 862T510 857Q517 853 526 837T545 799T561 761T567 737Q568 733 562 723T547 711Z" />
<glyph unicode="&#xd3;" horiz-adv-x="496" d="M175 -20Q138 8 128 23T116 61Q114 79 116 110T123 171T130 216Q135 221 135 229T134 238Q133 243 141 264T156 320Q176 380 194 420T231 490T267 543Q308 585 333 606T389 642Q409 654 426 661T454 663Q510 651
538 618T579 514Q586 470 587 435T582 365T557 289T505 193Q470 124 427 73T338 -7T250 -41T175 -20ZM239 9Q262 12 283 23T327 55T379 110Q405 140 421 160T449 202T471 253T496 331Q504 361 508 381T513 418T514 459T513 518Q512 535 506 553T492 581Q482 592
464 596T424 591Q412 586 393 569T353 528T314 481T284 439T272 413Q272 413 272 408T267 398Q254 384 239 348T209 267T186 177T174 99Q172 72 172 62T176 47T189 26Q195 16 209 11T239 9ZM478 714Q471 721 468 735T465 753Q466 758 478 773T508 806T540 838T563
855Q574 862 584 853T604 827Q607 818 597 806T569 779T536 752T511 727Q501 711 496 708T478 714Z" />
<glyph unicode="&#xd4;" horiz-adv-x="496" d="M175 -20Q138 8 128 23T116 61Q114 79 116 110T123 171T130 216Q135 221 135 229T134 238Q133 243 141 264T156 320Q176 380 194 420T231 490T267 543Q308 585 333 606T389 642Q409 654 426 661T454 663Q510 651
538 618T579 514Q586 470 587 435T582 365T557 289T505 193Q470 124 427 73T338 -7T250 -41T175 -20ZM239 9Q262 12 283 23T327 55T379 110Q405 140 421 160T449 202T471 253T496 331Q504 361 508 381T513 418T514 459T513 518Q512 535 506 553T492 581Q482 592
464 596T424 591Q412 586 393 569T353 528T314 481T284 439T272 413Q272 413 272 408T267 398Q254 384 239 348T209 267T186 177T174 99Q172 72 172 62T176 47T189 26Q195 16 209 11T239 9ZM467 730Q450 713 438 715T423 730T431 757Q434 761 445 771T470 794T500
818T525 835Q534 843 542 843T556 833Q568 823 585 806T618 773T635 755Q641 747 641 737T634 719T617 714T593 733Q586 742 570 757T539 786Q527 779 513 768T486 747T467 730Z" />
<glyph unicode="&#xd5;" horiz-adv-x="496" d="M175 -20Q138 8 128 23T116 61Q114 79 116 110T123 171T130 216Q135 221 135 229T134 238Q133 243 141 264T156 320Q176 380 194 420T231 490T267 543Q308 585 333 606T389 642Q409 654 426 661T454 663Q510 651
538 618T579 514Q586 470 587 435T582 365T557 289T505 193Q470 124 427 73T338 -7T250 -41T175 -20ZM239 9Q262 12 283 23T327 55T379 110Q405 140 421 160T449 202T471 253T496 331Q504 361 508 381T513 418T514 459T513 518Q512 535 506 553T492 581Q482 592
464 596T424 591Q412 586 393 569T353 528T314 481T284 439T272 413Q272 413 272 408T267 398Q254 384 239 348T209 267T186 177T174 99Q172 72 172 62T176 47T189 26Q195 16 209 11T239 9ZM822 729Q802 729 790 736T758 757Q749 762 734 777T707 792Q697 792 691
784T678 768T661 757Q660 752 655 745T648 742Q638 745 633 752T628 764Q629 773 643 796T691 836Q703 841 724 836T762 816Q785 795 797 786T828 784Q843 788 860 799T899 819Q906 822 912 819T921 808T923 795Q923 791 917 781T901 766Q871 749 855 741T833 731T822
729Z" />
<glyph unicode="&#xd6;" horiz-adv-x="496" d="M175 -20Q138 8 128 23T116 61Q114 79 116 110T123 171T130 216Q135 221 135 229T134 238Q133 243 141 264T156 320Q176 380 194 420T231 490T267 543Q308 585 333 606T389 642Q409 654 426 661T454 663Q510 651
538 618T579 514Q586 470 587 435T582 365T557 289T505 193Q470 124 427 73T338 -7T250 -41T175 -20ZM239 9Q262 12 283 23T327 55T379 110Q405 140 421 160T449 202T471 253T496 331Q504 361 508 381T513 418T514 459T513 518Q512 535 506 553T492 581Q482 592
464 596T424 591Q412 586 393 569T353 528T314 481T284 439T272 413Q272 413 272 408T267 398Q254 384 239 348T209 267T186 177T174 99Q172 72 172 62T176 47T189 26Q195 16 209 11T239 9ZM825 750Q818 757 814 767T810 782Q812 787 817 801T830 822Q833 824 837
828T845 834Q857 843 867 837T883 815Q892 801 889 791T873 763Q858 742 846 740T825 750ZM696 750Q689 757 685 767T681 782Q683 787 688 801T701 822Q704 824 707 828T715 834Q723 840 730 839T744 832T754 815Q763 801 760 791T744 763Q728 742 716 740T696
750Z" />
<glyph unicode="&#xd7;" horiz-adv-x="446" d="M440 77Q438 59 428 61T388 87Q376 95 355 113T307 156T254 205T205 252T172 284Q154 302 149 310T144 333Q144 355 156 361T182 349Q187 345 201 333T230 308Q233 305 249 289T289 251T337 206T381 163T409 136Q413
132 419 126T430 108Q441 98 441 92T440 77ZM160 61Q142 63 144 74T170 113Q178 125 196 146T239 194T288 247T335 296T367 329Q385 347 393 352T416 357Q438 357 444 345T432 319Q428 314 416 300T391 271Q388 268 372 252T334 212T289 164T246 120T219 92Q215
88 209 82T191 71Q181 61 175 60T160 61Z" />
<glyph unicode="&#xd8;" horiz-adv-x="496" d="M132 -71Q112 -70 105 -55T104 -13T130 46Q138 57 144 66T153 83Q157 89 173 113T212 170T260 240T308 309T346 363T364 387Q368 386 373 391T380 404Q383 412 389 420T400 430Q402 435 406 440T412 450Q413 454
416 457T421 464Q431 474 451 497T494 550T539 607T575 655T592 680Q597 695 613 689Q616 691 620 691T629 690Q629 690 631 686T639 670Q645 660 644 652T638 632Q634 619 628 610T608 586T563 539Q548 522 535 510T522 493Q520 489 514 483T501 465Q495 459 483
447T459 420T438 395T429 382Q427 379 426 375T418 369Q415 371 413 366T410 360Q410 356 402 344T379 314Q368 298 349 269T305 204T255 129T208 57T172 -1T154 -34Q147 -56 144 -62T132 -71ZM175 -20Q138 8 128 23T116 61Q114 79 116 110T123 171T130 216Q135
221 135 229T134 238Q133 243 141 264T156 320Q176 380 194 420T231 490T267 543Q308 585 333 606T389 642Q409 654 426 661T454 663Q510 651 538 618T579 514Q586 470 587 435T582 365T557 289T505 193Q470 124 427 73T338 -7T250 -41T175 -20ZM239 9Q262 12 283
23T327 55T379 110Q405 140 421 160T449 202T471 253T496 331Q504 361 508 381T513 418T514 459T513 518Q512 535 506 553T492 581Q482 592 464 596T424 591Q412 586 393 569T353 528T314 481T284 439T272 413Q272 413 272 408T267 398Q254 384 239 348T209 267T186
177T174 99Q172 72 172 62T176 47T189 26Q195 16 209 11T239 9Z" />
<glyph unicode="&#xd9;" horiz-adv-x="482" d="M220 -52Q174 -35 150 1T124 104T144 275Q151 310 164 355T194 447T231 539T270 618Q293 659 305 669T328 678Q347 673 355 660T362 631T342 604Q331 591 314 557T278 490Q258 432 243 388T218 304T200 222Q191 180
187 153T181 109T179 78T179 51Q187 38 192 28T205 16Q222 8 243 12T286 28Q291 38 299 42T307 46Q309 41 311 43T315 50Q314 54 317 57T324 65Q332 68 347 85T379 125T407 165T419 187Q419 192 423 196T432 206Q437 211 452 238T486 303T520 371Q523 382 531 406T548
463T567 527T583 585T593 623Q595 636 599 644T604 657Q609 659 616 656T630 649T644 642Q650 634 649 622T643 586T627 515Q606 433 577 364T513 218Q513 218 513 218T513 212Q501 205 494 191Q489 182 486 176T477 166Q474 157 471 150T468 143Q467 138 461 134T449
126Q444 124 443 118T439 108Q417 75 389 43T332 -12T275 -46Q257 -53 246 -54T220 -52ZM788 711Q780 705 776 705T768 710T761 727Q753 744 737 767T711 812T709 845Q722 856 731 862T751 857Q758 853 767 837T786 799T802 761T808 737Q809 733 803 723T788 711Z"
/>
<glyph unicode="&#xda;" horiz-adv-x="482" d="M220 -52Q174 -35 150 1T124 104T144 275Q151 310 164 355T194 447T231 539T270 618Q293 659 305 669T328 678Q347 673 355 660T362 631T342 604Q331 591 314 557T278 490Q258 432 243 388T218 304T200 222Q191 180
187 153T181 109T179 78T179 51Q187 38 192 28T205 16Q222 8 243 12T286 28Q291 38 299 42T307 46Q309 41 311 43T315 50Q314 54 317 57T324 65Q332 68 347 85T379 125T407 165T419 187Q419 192 423 196T432 206Q437 211 452 238T486 303T520 371Q523 382 531 406T548
463T567 527T583 585T593 623Q595 636 599 644T604 657Q609 659 616 656T630 649T644 642Q650 634 649 622T643 586T627 515Q606 433 577 364T513 218Q513 218 513 218T513 212Q501 205 494 191Q489 182 486 176T477 166Q474 157 471 150T468 143Q467 138 461 134T449
126Q444 124 443 118T439 108Q417 75 389 43T332 -12T275 -46Q257 -53 246 -54T220 -52ZM719 714Q712 721 709 735T706 753Q707 758 719 773T749 806T781 838T804 855Q815 862 825 853T845 827Q848 818 838 806T810 779T777 752T752 727Q742 711 737 708T719 714Z"
/>
<glyph unicode="&#xdb;" horiz-adv-x="482" d="M220 -52Q174 -35 150 1T124 104T144 275Q151 310 164 355T194 447T231 539T270 618Q293 659 305 669T328 678Q347 673 355 660T362 631T342 604Q331 591 314 557T278 490Q258 432 243 388T218 304T200 222Q191 180
187 153T181 109T179 78T179 51Q187 38 192 28T205 16Q222 8 243 12T286 28Q291 38 299 42T307 46Q309 41 311 43T315 50Q314 54 317 57T324 65Q332 68 347 85T379 125T407 165T419 187Q419 192 423 196T432 206Q437 211 452 238T486 303T520 371Q523 382 531 406T548
463T567 527T583 585T593 623Q595 636 599 644T604 657Q609 659 616 656T630 649T644 642Q650 634 649 622T643 586T627 515Q606 433 577 364T513 218Q513 218 513 218T513 212Q501 205 494 191Q489 182 486 176T477 166Q474 157 471 150T468 143Q467 138 461 134T449
126Q444 124 443 118T439 108Q417 75 389 43T332 -12T275 -46Q257 -53 246 -54T220 -52ZM708 730Q691 713 679 715T664 730T672 757Q675 761 686 771T711 794T741 818T766 835Q775 843 783 843T797 833Q809 823 826 806T859 773T876 755Q882 747 882 737T875 719T858
714T834 733Q827 742 811 757T780 786Q768 779 754 768T727 747T708 730Z" />
<glyph unicode="&#xdc;" horiz-adv-x="482" d="M220 -52Q174 -35 150 1T124 104T144 275Q151 310 164 355T194 447T231 539T270 618Q293 659 305 669T328 678Q347 673 355 660T362 631T342 604Q331 591 314 557T278 490Q258 432 243 388T218 304T200 222Q191 180
187 153T181 109T179 78T179 51Q187 38 192 28T205 16Q222 8 243 12T286 28Q291 38 299 42T307 46Q309 41 311 43T315 50Q314 54 317 57T324 65Q332 68 347 85T379 125T407 165T419 187Q419 192 423 196T432 206Q437 211 452 238T486 303T520 371Q523 382 531 406T548
463T567 527T583 585T593 623Q595 636 599 644T604 657Q609 659 616 656T630 649T644 642Q650 634 649 622T643 586T627 515Q606 433 577 364T513 218Q513 218 513 218T513 212Q501 205 494 191Q489 182 486 176T477 166Q474 157 471 150T468 143Q467 138 461 134T449
126Q444 124 443 118T439 108Q417 75 389 43T332 -12T275 -46Q257 -53 246 -54T220 -52ZM810 750Q803 757 799 767T795 782Q797 787 802 801T815 822Q818 824 822 828T830 834Q842 843 852 837T868 815Q877 801 874 791T858 763Q843 742 831 740T810 750ZM681 750Q674
757 670 767T666 782Q668 787 673 801T686 822Q689 824 692 828T700 834Q708 840 715 839T729 832T739 815Q748 801 745 791T729 763Q713 742 701 740T681 750Z" />
<glyph unicode="&#xdd;" horiz-adv-x="504" d="M330 267L295 311Q275 341 263 367T246 431Q239 455 237 476T235 524T237 593Q238 631 245 648T257 673Q267 685 275 676T289 646T294 595Q297 488 309 425T344 348Q356 345 365 349T393 373T449 433Q476 462 504
495T558 558T604 609T637 638Q641 644 645 647T654 650T658 651Q666 649 667 639T675 618Q677 614 678 610T678 600Q678 597 674 593T666 584T656 574Q643 563 616 536T559 477T510 420Q466 369 432 332T389 288Q388 286 375 274T357 254L330 267ZM259 -68Q255
-67 247 -62T229 -49Q222 -41 221 -34T223 -14T234 26Q235 49 243 82T264 137Q264 148 269 167T281 206T295 242L313 294L353 328L381 297Q377 291 374 283T366 256T351 197Q343 170 334 139T316 81T302 37Q290 -8 284 -32T274 -63T259 -68ZM716 715Q709 722 706
736T703 754Q704 759 716 774T746 807T778 839T801 856Q812 863 822 854T842 828Q845 819 835 807T807 780T774 753T749 728Q739 712 734 709T716 715Z" />
<glyph unicode="&#xde;" horiz-adv-x="472" d="M117 -64Q112 -61 103 -59T86 -53T78 -39Q77 -36 77 -33T79 -20T88 15Q89 18 95 40T111 92T129 152T144 200T152 216Q153 221 158 237T168 257Q169 266 173 280T184 308T197 327Q197 333 202 347T214 376T227 403T234
414Q234 414 235 420T247 439Q247 439 248 449T258 465Q262 480 263 485T260 493Q251 519 276 520Q282 520 290 537Q292 541 294 542Q307 576 319 609T338 665T346 693Q346 701 353 705T369 709Q372 712 376 713T385 714L401 698Q409 691 410 682T412 661Q412 649
409 639T398 612T373 559Q387 561 396 563T406 565Q420 565 442 563T478 558Q514 541 533 515T555 466Q557 454 552 431T538 381T519 335T499 307Q504 308 495 296T473 272T452 257Q452 257 445 245T425 225Q413 218 400 209T378 187Q378 195 373 193T362 185T352
177Q307 150 265 142Q260 138 250 137T229 136L195 141L174 84Q167 53 159 28T144 -27Q141 -45 137 -54T127 -66T117 -64ZM218 194Q274 193 309 212T375 260Q383 268 397 284T426 318T453 352Q469 374 476 401T484 452T479 486Q466 505 443 508T394 506T349 489Q344
487 332 466T304 414T273 347T244 279T224 223T218 194Z" />
<glyph unicode="&#xdf;" horiz-adv-x="398" d="M79 -213Q63 -209 55 -197T44 -168Q46 -166 45 -155T44 -139Q49 -130 52 -114T54 -76Q60 -61 61 -49T63 -32Q63 -32 67 -15T77 26T89 73T100 109Q103 123 107 139T115 162Q120 176 125 192T141 237Q140 245 145 263T159
302T178 338Q183 369 193 391T204 414Q208 410 208 410T204 414Q201 418 201 425T203 439Q215 446 217 453T220 461Q220 463 231 478T257 514T289 555T314 586Q334 605 359 620T404 640Q417 643 426 644T441 646T448 647Q453 648 464 641T487 622T504 599Q518 563
509 521T468 436Q456 417 444 407T431 397Q431 397 423 389T409 367Q399 358 393 350T384 341Q381 341 376 333T367 316T366 300Q366 300 364 297T361 294Q354 294 357 282T368 256T380 232Q387 231 394 218T409 183Q411 156 413 144T416 114Q413 85 402 66T371
36T326 24Q300 20 287 23T251 34Q223 45 213 56T212 86Q214 90 217 91T221 91Q229 91 230 91T232 92Q232 92 240 92T262 91Q277 90 287 87T305 84T319 93Q330 95 337 95T345 96Q346 96 346 105Q345 106 346 106Q346 106 352 116T356 137Q355 151 353 162T337 190Q329
213 318 232T297 264T286 278Q281 284 284 294T289 310Q291 316 293 318T295 321Q295 322 306 337T332 371T359 408T375 430Q392 441 408 456T424 475Q419 489 438 513Q452 536 455 555T453 587Q437 597 407 583T351 539Q344 531 332 517T318 502Q304 484 285 451T247
378T216 303Q220 296 214 281T198 258Q200 244 199 233T198 221Q198 214 195 209T192 204Q187 204 186 204T185 203Q185 203 182 189T171 155Q161 127 156 113T149 83T142 38Q129 -2 123 -29T112 -79Q111 -83 111 -92T113 -108Q111 -115 109 -128T104 -157T102
-184Q102 -203 99 -208T79 -213Z" />
<glyph unicode="&#xe0;" horiz-adv-x="437" d="M107 36Q103 44 97 48T91 57Q91 61 91 65T86 74Q81 80 87 101T107 154T140 221Q148 229 156 242T168 259Q168 263 171 266T178 270V276Q178 281 187 293T211 319T240 347T265 367Q286 381 308 384T347 374Q350 371
357 364T373 349T393 331L430 298L412 248Q399 208 405 178T425 126Q430 115 445 105T475 93Q483 92 490 87T497 71Q497 61 493 55T479 47Q446 43 418 63T365 129Q361 135 355 151T347 173Q343 168 332 155T315 135Q244 63 193 39T107 36ZM143 92Q143 85 164 92T211
120Q245 149 279 184T335 249L357 285Q347 308 336 316T316 325Q303 325 278 301T223 237T168 149Q158 129 151 111T143 92ZM391 441Q379 432 375 436T364 457Q358 469 347 486T326 520T311 551T312 575Q325 586 334 592T354 587Q361 583 370 567T389 529T405 491T411
467Q412 464 409 459T402 448T391 441Z" />
<glyph unicode="&#xe1;" horiz-adv-x="437" d="M107 36Q103 44 97 48T91 57Q91 61 91 65T86 74Q81 80 87 101T107 154T140 221Q148 229 156 242T168 259Q168 263 171 266T178 270V276Q178 281 187 293T211 319T240 347T265 367Q286 381 308 384T347 374Q350 371
357 364T373 349T393 331L430 298L412 248Q399 208 405 178T425 126Q430 115 445 105T475 93Q483 92 490 87T497 71Q497 61 493 55T479 47Q446 43 418 63T365 129Q361 135 355 151T347 173Q343 168 332 155T315 135Q244 63 193 39T107 36ZM143 92Q143 85 164 92T211
120Q245 149 279 184T335 249L357 285Q347 308 336 316T316 325Q303 325 278 301T223 237T168 149Q158 129 151 111T143 92ZM389 444Q382 451 379 465T376 483Q377 488 389 503T419 536T451 568T474 585Q485 592 495 583T515 557Q518 548 508 536T480 509T447 482T422
457Q412 441 407 438T389 444Z" />
<glyph unicode="&#xe2;" horiz-adv-x="437" d="M107 36Q103 44 97 48T91 57Q91 61 91 65T86 74Q81 80 87 101T107 154T140 221Q148 229 156 242T168 259Q168 263 171 266T178 270V276Q178 281 187 293T211 319T240 347T265 367Q286 381 308 384T347 374Q350 371
357 364T373 349T393 331L430 298L412 248Q399 208 405 178T425 126Q430 115 445 105T475 93Q483 92 490 87T497 71Q497 61 493 55T479 47Q446 43 418 63T365 129Q361 135 355 151T347 173Q343 168 332 155T315 135Q244 63 193 39T107 36ZM143 92Q143 85 164 92T211
120Q245 149 279 184T335 249L357 285Q347 308 336 316T316 325Q303 325 278 301T223 237T168 149Q158 129 151 111T143 92ZM309 456Q292 439 280 441T265 456T273 483Q276 487 287 497T312 520T342 544T367 561Q376 569 384 569T398 559Q410 549 427 532T460 499T477
481Q483 473 483 463T476 445T459 440T435 459Q428 468 412 483T381 512Q369 505 355 494T328 473T309 456Z" />
<glyph unicode="&#xe3;" horiz-adv-x="437" d="M107 36Q103 44 97 48T91 57Q91 61 91 65T86 74Q81 80 87 101T107 154T140 221Q148 229 156 242T168 259Q168 263 171 266T178 270V276Q178 281 187 293T211 319T240 347T265 367Q286 381 308 384T347 374Q350 371
357 364T373 349T393 331L430 298L412 248Q399 208 405 178T425 126Q430 115 445 105T475 93Q483 92 490 87T497 71Q497 61 493 55T479 47Q446 43 418 63T365 129Q361 135 355 151T347 173Q343 168 332 155T315 135Q244 63 193 39T107 36ZM143 92Q143 85 164 92T211
120Q245 149 279 184T335 249L357 285Q347 308 336 316T316 325Q303 325 278 301T223 237T168 149Q158 129 151 111T143 92ZM431 429Q411 429 399 436T367 457Q358 462 343 477T316 492Q306 492 300 484T287 468T270 457Q269 452 264 445T257 442Q247 445 242 452T237
464Q238 473 252 496T300 536Q312 541 333 536T371 516Q394 495 406 486T437 484Q452 488 469 499T508 519Q515 522 521 519T530 508T532 495Q532 491 526 481T510 466Q480 449 464 441T442 431T431 429Z" />
<glyph unicode="&#xe4;" horiz-adv-x="437" d="M107 36Q103 44 97 48T91 57Q91 61 91 65T86 74Q81 80 87 101T107 154T140 221Q148 229 156 242T168 259Q168 263 171 266T178 270V276Q178 281 187 293T211 319T240 347T265 367Q286 381 308 384T347 374Q350 371
357 364T373 349T393 331L430 298L412 248Q399 208 405 178T425 126Q430 115 445 105T475 93Q483 92 490 87T497 71Q497 61 493 55T479 47Q446 43 418 63T365 129Q361 135 355 151T347 173Q343 168 332 155T315 135Q244 63 193 39T107 36ZM143 92Q143 85 164 92T211
120Q245 149 279 184T335 249L357 285Q347 308 336 316T316 325Q303 325 278 301T223 237T168 149Q158 129 151 111T143 92ZM306 450Q299 457 295 467T291 482Q293 487 298 501T311 522Q314 524 317 528T325 534Q337 542 347 537T363 515Q372 501 369 491T353 463Q338
443 326 441T306 450ZM434 450Q427 457 423 467T419 482Q421 487 426 501T439 522Q442 524 445 528T453 534Q465 542 475 537T491 515Q500 501 497 491T481 463Q466 443 454 441T434 450Z" />
<glyph unicode="&#xe5;" horiz-adv-x="437" d="M107 36Q103 44 97 48T91 57Q91 61 91 65T86 74Q81 80 87 101T107 154T140 221Q148 229 156 242T168 259Q168 263 171 266T178 270V276Q178 281 187 293T211 319T240 347T265 367Q286 381 308 384T347 374Q350 371
357 364T373 349T393 331L430 298L412 248Q399 208 405 178T425 126Q430 115 445 105T475 93Q483 92 490 87T497 71Q497 61 493 55T479 47Q446 43 418 63T365 129Q361 135 355 151T347 173Q343 168 332 155T315 135Q244 63 193 39T107 36ZM143 92Q143 85 164 92T211
120Q245 149 279 184T335 249L357 285Q347 308 336 316T316 325Q303 325 278 301T223 237T168 149Q158 129 151 111T143 92ZM408 412Q374 412 359 432T341 482Q341 501 349 523T373 561T410 577Q442 577 464 563T486 519Q486 495 477 470T450 429T408 412ZM404
452Q422 452 433 463T443 499Q442 512 438 524T417 536Q379 536 379 486Q379 476 387 464T404 452Z" />
<glyph unicode="&#xe6;" horiz-adv-x="574" d="M102 36Q98 44 92 48T86 57Q86 61 86 65T81 74Q76 80 82 101T102 154T135 221Q143 229 151 242T163 259Q163 263 166 266T173 270V276Q173 281 182 293T206 319T235 347T260 367Q274 377 289 381T318 384T342 374Q345
371 352 364T368 349T388 331L425 298L407 248Q398 222 390 202T378 167L369 112L360 129Q356 135 350 151T342 173Q338 168 327 155T310 135Q263 87 224 60T155 28T102 36ZM138 92Q138 85 159 92T206 120Q229 140 252 162T295 206T330 249L352 285Q342 308 331
316T311 325Q298 325 273 301T218 237T163 149Q153 129 146 111T138 92ZM516 35Q495 17 468 14T414 22T371 58Q354 80 349 108T348 183Q351 222 373 261T426 332T489 375Q504 385 514 385T547 382Q570 379 581 373T600 357Q610 347 615 337T623 318T625 299Q621
277 596 246T529 194Q507 187 481 188T438 201Q419 209 413 199T402 148Q398 110 408 93T435 72Q455 68 466 67T495 75Q511 85 515 86T521 90T534 103Q541 110 545 113T554 117Q559 117 563 113T571 106Q581 106 576 94T554 66T516 35ZM515 247Q526 252 538 261T558
282T567 302Q567 316 554 325T515 328Q504 325 490 314T464 288T444 263T438 250Q441 245 455 243T486 241T515 247Z" />
<glyph unicode="&#xe7;" horiz-adv-x="355" d="M209 11Q180 6 156 14T118 43T103 96Q100 126 110 165T139 245T182 314Q202 338 222 358T258 385Q272 391 284 392T305 394Q321 390 339 380T358 357Q358 357 360 355T363 352Q369 352 373 339T379 310T374 282Q370
263 360 249T342 235Q338 235 335 235T331 229Q331 224 326 225T314 231T305 245Q305 250 309 262T317 293Q323 321 316 329T289 330Q264 316 242 291T200 227T166 128Q160 105 161 88T166 70Q180 66 204 68T239 77Q255 85 275 98T310 123Q315 126 322 133T337
144Q345 156 351 158T369 160Q377 158 384 154T393 146T390 139Q386 139 386 137T385 134Q387 130 377 118T350 90T320 65T299 54Q289 54 289 48Q289 46 275 38T242 22T209 11ZM193 -178Q178 -181 157 -179T118 -172T94 -165Q82 -161 79 -153T78 -137T89 -124T107
-122Q123 -127 142 -133T178 -139T201 -125Q208 -114 204 -104T188 -81Q181 -72 171 -60T150 -37Q142 -25 140 -14T153 13T217 53L250 30Q225 18 210 7T194 -17Q208 -37 225 -55T247 -94Q253 -118 248 -135T228 -163T193 -178Z" />
<glyph unicode="&#xe8;" horiz-adv-x="325" d="M276 35Q255 17 228 14T174 22T131 58Q114 80 109 108T108 183Q111 222 133 261T186 332T249 375Q264 385 274 385T307 382Q330 379 341 373T360 357Q375 342 380 328T385 299Q381 277 356 246T289 194Q267 187 241
188T198 201Q179 209 173 199T162 148Q158 110 168 93T195 72Q215 68 226 67T255 75Q271 85 275 86T281 90T294 103Q301 110 305 113T314 117Q319 117 323 113T331 106Q341 106 336 94T314 66T276 35ZM275 247Q286 252 298 261T318 282T327 302Q327 316 314 325T275
328Q264 325 250 314T224 288T204 263T198 250Q201 245 215 243T246 241T275 247ZM589 441Q577 432 573 436T562 457Q556 469 545 486T524 520T509 551T510 575Q523 586 532 592T552 587Q559 583 568 567T587 529T603 491T609 467Q610 464 607 459T600 448T589
441Z" />
<glyph unicode="&#xe9;" horiz-adv-x="325" d="M276 35Q255 17 228 14T174 22T131 58Q114 80 109 108T108 183Q111 222 133 261T186 332T249 375Q264 385 274 385T307 382Q330 379 341 373T360 357Q375 342 380 328T385 299Q381 277 356 246T289 194Q267 187 241
188T198 201Q179 209 173 199T162 148Q158 110 168 93T195 72Q215 68 226 67T255 75Q271 85 275 86T281 90T294 103Q301 110 305 113T314 117Q319 117 323 113T331 106Q341 106 336 94T314 66T276 35ZM275 247Q286 252 298 261T318 282T327 302Q327 316 314 325T275
328Q264 325 250 314T224 288T204 263T198 250Q201 245 215 243T246 241T275 247ZM587 444Q580 451 577 465T574 483Q575 488 587 503T617 536T649 568T672 585Q683 592 693 583T713 557Q716 548 706 536T678 509T645 482T620 457Q610 441 605 438T587 444Z" />
<glyph unicode="&#xea;" horiz-adv-x="325" d="M276 35Q255 17 228 14T174 22T131 58Q114 80 109 108T108 183Q111 222 133 261T186 332T249 375Q264 385 274 385T307 382Q330 379 341 373T360 357Q375 342 380 328T385 299Q381 277 356 246T289 194Q267 187 241
188T198 201Q179 209 173 199T162 148Q158 110 168 93T195 72Q215 68 226 67T255 75Q271 85 275 86T281 90T294 103Q301 110 305 113T314 117Q319 117 323 113T331 106Q341 106 336 94T314 66T276 35ZM275 247Q286 252 298 261T318 282T327 302Q327 316 314 325T275
328Q264 325 250 314T224 288T204 263T198 250Q201 245 215 243T246 241T275 247ZM507 456Q490 439 478 441T463 456T471 483Q474 487 485 497T510 520T540 544T565 561Q574 569 582 569T596 559Q608 549 625 532T658 499T675 481Q681 473 681 463T674 445T657
440T633 459Q626 468 610 483T579 512Q567 505 553 494T526 473T507 456Z" />
<glyph unicode="&#xeb;" horiz-adv-x="325" d="M276 35Q255 17 228 14T174 22T131 58Q114 80 109 108T108 183Q111 222 133 261T186 332T249 375Q264 385 274 385T307 382Q330 379 341 373T360 357Q375 342 380 328T385 299Q381 277 356 246T289 194Q267 187 241
188T198 201Q179 209 173 199T162 148Q158 110 168 93T195 72Q215 68 226 67T255 75Q271 85 275 86T281 90T294 103Q301 110 305 113T314 117Q319 117 323 113T331 106Q341 106 336 94T314 66T276 35ZM275 247Q286 252 298 261T318 282T327 302Q327 316 314 325T275
328Q264 325 250 314T224 288T204 263T198 250Q201 245 215 243T246 241T275 247ZM504 450Q497 457 493 467T489 482Q491 487 496 501T509 522Q512 524 515 528T523 534Q535 542 545 537T561 515Q570 501 567 491T551 463Q536 443 524 441T504 450ZM632 450Q625
457 621 467T617 482Q619 487 624 501T637 522Q640 524 643 528T651 534Q663 542 673 537T689 515Q698 501 695 491T679 463Q664 443 652 441T632 450Z" />
<glyph unicode="&#xec;" horiz-adv-x="187" d="M111 32Q103 40 100 52T97 76T102 96Q102 104 104 108T106 117Q105 121 108 131T114 150Q121 166 129 188T144 233T156 271T162 291Q162 303 178 304Q190 308 196 305T212 285Q220 277 218 261T205 221Q201 213 196
198T188 171Q184 163 179 149T169 121Q167 116 165 107T160 87T152 68Q143 27 136 20T111 32ZM498 441Q486 432 482 436T471 457Q465 469 454 486T433 520T418 551T419 575Q432 586 441 592T461 587Q468 583 477 567T496 529T512 491T518 467Q519 464 516 459T509
448T498 441Z" />
<glyph unicode="&#xed;" horiz-adv-x="187" d="M111 32Q103 40 100 52T97 76T102 96Q102 104 104 108T106 117Q105 121 108 131T114 150Q121 166 129 188T144 233T156 271T162 291Q162 303 178 304Q190 308 196 305T212 285Q220 277 218 261T205 221Q201 213 196
198T188 171Q184 163 179 149T169 121Q167 116 165 107T160 87T152 68Q143 27 136 20T111 32ZM496 444Q489 451 486 465T483 483Q484 488 496 503T526 536T558 568T581 585Q592 592 602 583T622 557Q625 548 615 536T587 509T554 482T529 457Q519 441 514 438T496
444Z" />
<glyph unicode="&#xee;" horiz-adv-x="187" d="M111 32Q103 40 100 52T97 76T102 96Q102 104 104 108T106 117Q105 121 108 131T114 150Q121 166 129 188T144 233T156 271T162 291Q162 303 178 304Q190 308 196 305T212 285Q220 277 218 261T205 221Q201 213 196
198T188 171Q184 163 179 149T169 121Q167 116 165 107T160 87T152 68Q143 27 136 20T111 32ZM416 456Q399 439 387 441T372 456T380 483Q383 487 394 497T419 520T449 544T474 561Q483 569 491 569T505 559Q517 549 534 532T567 499T584 481Q590 473 590 463T583
445T566 440T542 459Q535 468 519 483T488 512Q476 505 462 494T435 473T416 456Z" />
<glyph unicode="&#xef;" horiz-adv-x="187" d="M111 32Q103 40 100 52T97 76T102 96Q102 104 104 108T106 117Q105 121 108 131T114 150Q121 166 129 188T144 233T156 271T162 291Q162 303 178 304Q190 308 196 305T212 285Q220 277 218 261T205 221Q201 213 196
198T188 171Q184 163 179 149T169 121Q167 116 165 107T160 87T152 68Q143 27 136 20T111 32ZM413 450Q406 457 402 467T398 482Q400 487 405 501T418 522Q421 524 424 528T432 534Q444 542 454 537T470 515Q479 501 476 491T460 463Q445 443 433 441T413 450ZM541
450Q534 457 530 467T526 482Q528 487 533 501T546 522Q549 524 552 528T560 534Q572 542 582 537T598 515Q607 501 604 491T588 463Q573 443 561 441T541 450Z" />
<glyph unicode="&#xf0;" horiz-adv-x="349" d="M180 12Q167 10 160 14T141 28Q128 41 120 52T108 76T106 99Q109 108 107 115T105 122Q100 127 102 128T106 134Q112 135 110 146Q109 151 112 165T122 199T140 234Q145 244 155 261T179 295T205 323Q228 346 246
357T287 375Q309 380 317 380T341 367Q343 365 345 365Q346 412 333 462T278 564Q263 580 253 586T234 606Q234 609 238 614T248 625T260 631Q265 634 272 633T285 629T294 623Q298 627 307 615T336 577Q368 536 384 481T401 364T389 245T348 138Q326 100 306 82T258
44Q237 29 220 22T180 12ZM273 121Q288 141 298 157T316 192T333 236Q335 247 335 263T333 294T324 311Q312 318 296 315T261 293Q230 265 209 226T168 136Q156 99 166 79T204 65T273 121ZM295 457Q289 457 280 457T259 458Q244 453 238 455T224 465Q210 480 218
487T264 506Q287 511 304 517T339 530T385 542Q411 547 421 548T447 538Q465 523 462 510T435 500Q428 499 409 493T372 484Q367 475 346 470T295 457Z" />
<glyph unicode="&#xf1;" horiz-adv-x="450" d="M454 46Q434 46 421 54T399 83Q395 97 393 114T390 147T393 168Q397 172 397 182T396 205Q395 225 387 227T362 221Q344 210 315 192T255 151T195 105Q173 81 169 69T156 56Q148 52 143 55T127 67Q120 75 113 82T104
94Q104 99 107 115T114 147T121 168Q126 168 129 178T141 200Q143 212 151 232T167 269Q181 293 186 309T194 349Q193 353 196 356T203 360V360V360Q211 368 222 365T242 349Q260 325 257 300T224 227Q217 211 214 203T210 189Q210 189 220 196T244 212T266 227Q271
232 289 245T327 270T358 285Q366 289 375 292T388 296Q396 296 408 288T432 268T445 248Q445 244 445 240T447 232Q451 219 451 197T450 157T443 136Q443 136 443 134T448 131Q448 127 448 127T448 126Q443 126 444 118T450 99T462 83Q474 71 472 61T454 46ZM437
429Q417 429 405 436T373 457Q364 462 349 477T322 492Q312 492 306 484T293 468T276 457Q275 452 270 445T263 442Q253 445 248 452T243 464Q244 473 258 496T306 536Q318 541 339 536T377 516Q400 495 412 486T443 484Q458 488 475 499T514 519Q521 522 527 519T536
508T538 495Q538 491 532 481T516 466Q486 449 470 441T448 431T437 429Z" />
<glyph unicode="&#xf2;" horiz-adv-x="353" d="M169 15Q156 15 149 20T130 34Q111 54 103 72T98 108Q101 116 101 123T100 131Q95 136 97 137T101 143Q107 143 105 154Q103 162 113 189T138 240Q144 250 156 266T182 299T209 326Q234 347 253 357T294 372Q316
377 324 377T348 361Q371 351 381 337T395 296Q398 266 391 228T343 132Q318 96 297 79T247 44Q226 30 209 24T169 15ZM265 121Q289 148 303 172T331 233Q335 244 336 260T336 291T328 308Q316 315 299 313T262 293Q231 267 208 229T163 141Q148 105 156 84T193
68T265 121ZM348 441Q336 432 332 436T321 457Q315 469 304 486T283 520T268 551T269 575Q282 586 291 592T311 587Q318 583 327 567T346 529T362 491T368 467Q369 464 366 459T359 448T348 441Z" />
<glyph unicode="&#xf3;" horiz-adv-x="353" d="M169 15Q156 15 149 20T130 34Q111 54 103 72T98 108Q101 116 101 123T100 131Q95 136 97 137T101 143Q107 143 105 154Q103 162 113 189T138 240Q144 250 156 266T182 299T209 326Q234 347 253 357T294 372Q316
377 324 377T348 361Q371 351 381 337T395 296Q398 266 391 228T343 132Q318 96 297 79T247 44Q226 30 209 24T169 15ZM265 121Q289 148 303 172T331 233Q335 244 336 260T336 291T328 308Q316 315 299 313T262 293Q231 267 208 229T163 141Q148 105 156 84T193
68T265 121ZM602 444Q595 451 592 465T589 483Q590 488 602 503T632 536T664 568T687 585Q698 592 708 583T728 557Q731 548 721 536T693 509T660 482T635 457Q625 441 620 438T602 444Z" />
<glyph unicode="&#xf4;" horiz-adv-x="353" d="M169 15Q156 15 149 20T130 34Q111 54 103 72T98 108Q101 116 101 123T100 131Q95 136 97 137T101 143Q107 143 105 154Q103 162 113 189T138 240Q144 250 156 266T182 299T209 326Q234 347 253 357T294 372Q316
377 324 377T348 361Q371 351 381 337T395 296Q398 266 391 228T343 132Q318 96 297 79T247 44Q226 30 209 24T169 15ZM265 121Q289 148 303 172T331 233Q335 244 336 260T336 291T328 308Q316 315 299 313T262 293Q231 267 208 229T163 141Q148 105 156 84T193
68T265 121ZM522 456Q505 439 493 441T478 456T486 483Q489 487 500 497T525 520T555 544T580 561Q589 569 597 569T611 559Q623 549 640 532T673 499T690 481Q696 473 696 463T689 445T672 440T648 459Q641 468 625 483T594 512Q582 505 568 494T541 473T522 456Z"
/>
<glyph unicode="&#xf5;" horiz-adv-x="353" d="M169 15Q156 15 149 20T130 34Q111 54 103 72T98 108Q101 116 101 123T100 131Q95 136 97 137T101 143Q107 143 105 154Q103 162 113 189T138 240Q144 250 156 266T182 299T209 326Q234 347 253 357T294 372Q316
377 324 377T348 361Q371 351 381 337T395 296Q398 266 391 228T343 132Q318 96 297 79T247 44Q226 30 209 24T169 15ZM265 121Q289 148 303 172T331 233Q335 244 336 260T336 291T328 308Q316 315 299 313T262 293Q231 267 208 229T163 141Q148 105 156 84T193
68T265 121ZM388 429Q368 429 356 436T324 457Q315 462 300 477T273 492Q263 492 257 484T244 468T227 457Q226 452 221 445T214 442Q204 445 199 452T194 464Q195 473 209 496T257 536Q269 541 290 536T328 516Q351 495 363 486T394 484Q409 488 426 499T465 519Q472
522 478 519T487 508T489 495Q489 491 483 481T467 466Q437 449 421 441T399 431T388 429Z" />
<glyph unicode="&#xf6;" horiz-adv-x="353" d="M169 15Q156 15 149 20T130 34Q111 54 103 72T98 108Q101 116 101 123T100 131Q95 136 97 137T101 143Q107 143 105 154Q103 162 113 189T138 240Q144 250 156 266T182 299T209 326Q234 347 253 357T294 372Q316
377 324 377T348 361Q371 351 381 337T395 296Q398 266 391 228T343 132Q318 96 297 79T247 44Q226 30 209 24T169 15ZM265 121Q289 148 303 172T331 233Q335 244 336 260T336 291T328 308Q316 315 299 313T262 293Q231 267 208 229T163 141Q148 105 156 84T193
68T265 121ZM263 450Q256 457 252 467T248 482Q250 487 255 501T268 522Q271 524 274 528T282 534Q294 542 304 537T320 515Q329 501 326 491T310 463Q295 443 283 441T263 450ZM391 450Q384 457 380 467T376 482Q378 487 383 501T396 522Q399 524 402 528T410
534Q422 542 432 537T448 515Q457 501 454 491T438 463Q423 443 411 441T391 450Z" />
<glyph unicode="&#xf7;" horiz-adv-x="446" d="M178 178Q172 178 163 178T143 183Q128 183 123 186T114 197Q103 212 112 217T158 227Q175 231 208 233T281 237T355 240T410 241Q436 241 445 239T465 226Q480 211 476 198T449 188Q444 188 434 187T411 185T386
183Q380 183 353 182T291 180T224 179T178 178ZM218 8Q213 13 209 22T204 40T206 49Q214 50 225 66T234 94Q234 98 237 101T244 106Q256 114 267 109T289 87Q298 68 294 56T272 21Q257 1 245 -1T218 8ZM308 328Q303 333 299 342T294 360T296 369Q304 370 315 386T324
414Q324 418 327 421T334 426Q346 434 357 429T379 407Q388 388 384 376T362 341Q347 321 335 319T308 328Z" />
<glyph unicode="&#xf8;" horiz-adv-x="353" d="M69 -15Q50 -10 54 10T83 56Q139 110 192 167T313 272Q322 277 342 292T385 326T424 360T443 378Q448 391 457 385T471 367Q474 356 463 345Q460 338 456 334T441 322T408 298Q371 273 338 246T268 187Q255 176 234
156T189 113T142 67T104 28T85 6Q78 -7 76 -11T69 -15ZM265 121Q289 148 303 172T331 233Q335 244 336 260T336 291T328 308Q316 315 299 313T262 293Q242 276 225 253T193 202T163 141Q151 114 153 95T170 69T208 74T265 121ZM169 15Q156 15 149 20T130 34Q111
54 103 72T98 108Q101 116 101 123T100 131Q95 136 97 137T101 143Q107 143 105 154Q103 162 113 189T138 240Q144 250 156 266T182 299T209 326Q234 347 253 357T294 372Q316 377 324 377T348 361Q371 351 381 337T395 296Q398 266 391 228T343 132Q318 96 297
79T247 44Q226 30 209 24T169 15Z" />
<glyph unicode="&#xf9;" horiz-adv-x="370" d="M339 2Q329 12 319 29T303 70Q301 78 301 92T301 112Q298 105 292 98T279 85Q275 81 261 70T233 51Q200 30 179 28T138 50Q122 63 116 79T115 123Q117 158 125 191T158 281Q179 322 190 341T204 365Q219 370 229
365T241 345Q247 335 240 311T214 252Q200 218 189 184T175 126T187 97Q196 92 218 100T269 140T325 237Q333 257 337 272T342 307Q340 319 343 328T359 345Q363 350 370 354T379 354L395 355Q399 356 400 351T407 341Q418 332 413 302T385 218Q366 177 360 156T352
115Q352 97 359 81T381 52Q392 45 393 36T394 15Q392 6 383 1T361 -5T339 2ZM583 443Q571 434 567 438T556 459Q550 471 539 488T518 522T503 553T504 577Q517 588 526 594T546 589Q553 585 562 569T581 531T597 493T603 469Q604 466 601 461T594 450T583 443Z"
/>
<glyph unicode="&#xfa;" horiz-adv-x="370" d="M339 2Q329 12 319 29T303 70Q301 78 301 92T301 112Q298 105 292 98T279 85Q275 81 261 70T233 51Q200 30 179 28T138 50Q122 63 116 79T115 123Q117 158 125 191T158 281Q179 322 190 341T204 365Q219 370 229
365T241 345Q247 335 240 311T214 252Q200 218 189 184T175 126T187 97Q196 92 218 100T269 140T325 237Q333 257 337 272T342 307Q340 319 343 328T359 345Q363 350 370 354T379 354L395 355Q399 356 400 351T407 341Q418 332 413 302T385 218Q366 177 360 156T352
115Q352 97 359 81T381 52Q392 45 393 36T394 15Q392 6 383 1T361 -5T339 2ZM567 697Q560 704 557 718T554 736Q555 741 567 756T597 789T629 821T652 838Q663 845 673 836T693 810Q696 801 686 789T658 762T625 735T600 710Q590 694 585 691T567 697Z" />
<glyph unicode="&#xfb;" horiz-adv-x="370" d="M339 2Q329 12 319 29T303 70Q301 78 301 92T301 112Q298 105 292 98T279 85Q275 81 261 70T233 51Q200 30 179 28T138 50Q122 63 116 79T115 123Q117 158 125 191T158 281Q179 322 190 341T204 365Q219 370 229
365T241 345Q247 335 240 311T214 252Q200 218 189 184T175 126T187 97Q196 92 218 100T269 140T325 237Q333 257 337 272T342 307Q340 319 343 328T359 345Q363 350 370 354T379 354L395 355Q399 356 400 351T407 341Q418 332 413 302T385 218Q366 177 360 156T352
115Q352 97 359 81T381 52Q392 45 393 36T394 15Q392 6 383 1T361 -5T339 2ZM276 456Q259 439 247 441T232 456T240 483Q243 487 254 497T279 520T309 544T334 561Q343 569 351 569T365 559Q377 549 394 532T427 499T444 481Q450 473 450 463T443 445T426 440T402
459Q395 468 379 483T348 512Q336 505 322 494T295 473T276 456Z" />
<glyph unicode="&#xfc;" horiz-adv-x="370" d="M339 2Q329 12 319 29T303 70Q301 78 301 92T301 112Q298 105 292 98T279 85Q275 81 261 70T233 51Q200 30 179 28T138 50Q122 63 116 79T115 123Q117 158 125 191T158 281Q179 322 190 341T204 365Q219 370 229
365T241 345Q247 335 240 311T214 252Q200 218 189 184T175 126T187 97Q196 92 218 100T269 140T325 237Q333 257 337 272T342 307Q340 319 343 328T359 345Q363 350 370 354T379 354L395 355Q399 356 400 351T407 341Q418 332 413 302T385 218Q366 177 360 156T352
115Q352 97 359 81T381 52Q392 45 393 36T394 15Q392 6 383 1T361 -5T339 2ZM273 450Q266 457 262 467T258 482Q260 487 265 501T278 522Q281 524 284 528T292 534Q304 542 314 537T330 515Q339 501 336 491T320 463Q305 443 293 441T273 450ZM401 450Q394 457
390 467T386 482Q388 487 393 501T406 522Q409 524 412 528T420 534Q432 542 442 537T458 515Q467 501 464 491T448 463Q433 443 421 441T401 450Z" />
<glyph unicode="&#xfd;" horiz-adv-x="341" d="M79 -199Q55 -206 27 -202T-23 -184T-48 -155Q-49 -149 -45 -142T-34 -133T-22 -136Q-14 -141 7 -148T54 -151Q77 -146 99 -124T136 -83Q144 -71 163 -40T202 28T237 98Q240 106 244 117T254 135Q260 147 264 157T270
172Q271 177 279 192T294 222Q299 237 309 266T329 313Q341 336 348 350T365 368V368V368Q374 375 377 375T392 369Q404 357 407 346T405 318T384 273Q376 249 367 230T352 204Q347 192 341 178T329 151Q311 111 298 86T275 40T254 -9Q231 -46 210 -79T164 -142Q154
-151 139 -163T109 -185T79 -199ZM214 41Q199 43 185 59T162 93T156 119Q156 124 156 127T156 130Q150 130 146 145T139 184T137 235T138 286Q142 303 142 323T143 356Q142 372 146 377T154 386V386V386Q182 398 191 372T196 273Q194 233 196 193T207 123T234 82Q241
78 241 71T237 57T227 45T214 41ZM561 444Q554 451 551 465T548 483Q549 488 561 503T591 536T623 568T646 585Q657 592 667 583T687 557Q690 548 680 536T652 509T619 482T594 457Q584 441 579 438T561 444Z" />
<glyph unicode="&#xfe;" horiz-adv-x="378" d="M61 -224Q57 -224 51 -224T40 -216Q36 -211 36 -201T40 -165Q45 -148 48 -132T51 -107Q51 -103 53 -92T56 -75Q61 -67 64 -53T67 -28Q67 -23 70 -17T79 -6Q79 2 82 14T86 30Q88 41 95 66T114 126T137 195T162 264T183
321L187 330L246 311Q287 330 318 331T371 321T404 286T415 235Q415 223 410 207T398 177T384 157Q380 157 376 151T368 136Q360 126 343 114T308 94T283 89Q283 89 281 89T278 83Q278 81 262 75T225 63T188 57Q176 57 170 58T158 65Q156 63 154 59T151 52Q151
46 147 30T136 -2T125 -17Q125 -17 123 -20T125 -28Q125 -28 125 -39T119 -59Q119 -67 116 -83T109 -107Q109 -119 106 -130T98 -142Q94 -143 93 -154T92 -171Q91 -196 82 -210T61 -224ZM182 110Q190 110 215 117T266 134T306 156Q332 179 346 208T344 265Q336
279 315 277T269 260T222 225Q210 212 200 193T184 155T176 123T182 110ZM185 327Q192 342 204 374T229 445T255 520T275 583T283 613Q283 621 287 625T299 629Q302 632 306 633T315 634Q315 634 319 630T331 618Q339 611 340 602T342 581Q339 575 332 552T310
487T271 379L245 297L185 327Z" />
<glyph unicode="&#xff;" horiz-adv-x="341" d="M79 -199Q55 -206 27 -202T-23 -184T-48 -155Q-49 -149 -45 -142T-34 -133T-22 -136Q-14 -141 7 -148T54 -151Q77 -146 99 -124T136 -83Q144 -71 163 -40T202 28T237 98Q240 106 244 117T254 135Q260 147 264 157T270
172Q271 177 279 192T294 222Q299 237 309 266T329 313Q341 336 348 350T365 368V368V368Q374 375 377 375T392 369Q404 357 407 346T405 318T384 273Q376 249 367 230T352 204Q347 192 341 178T329 151Q311 111 298 86T275 40T254 -9Q231 -46 210 -79T164 -142Q154
-151 139 -163T109 -185T79 -199ZM214 41Q199 43 185 59T162 93T156 119Q156 124 156 127T156 130Q150 130 146 145T139 184T137 235T138 286Q142 303 142 323T143 356Q142 372 146 377T154 386V386V386Q182 398 191 372T196 273Q194 233 196 193T207 123T234 82Q241
78 241 71T237 57T227 45T214 41ZM478 450Q471 457 467 467T463 482Q465 487 470 501T483 522Q486 524 489 528T497 534Q509 542 519 537T535 515Q544 501 541 491T525 463Q510 443 498 441T478 450ZM606 450Q599 457 595 467T591 482Q593 487 598 501T611 522Q614
524 617 528T625 534Q637 542 647 537T663 515Q672 501 669 491T653 463Q638 443 626 441T606 450Z" />
<glyph unicode="&#x2013;" horiz-adv-x="446" d="M178 178Q172 178 163 178T143 183Q128 183 123 186T114 197Q103 212 112 217T158 227Q175 231 208 233T281 237T355 240T410 241Q436 241 445 239T465 226Q480 211 476 198T449 188Q444 188 434 187T411 185T386
183Q380 183 353 182T291 180T224 179T178 178Z" />
<glyph unicode="&#x2014;" horiz-adv-x="566" d="M178 178Q172 178 163 178T143 183Q128 183 123 186T114 197Q103 212 112 217T158 227Q172 230 208 232T292 236T388 239T475 240T530 241Q556 241 565 239T585 226Q600 211 596 198T569 188Q562 187 543 186T506
183Q502 183 480 183T423 182T351 181T276 180T214 179T178 178Z" />
<glyph unicode="&#x2018;" horiz-adv-x="117" d="M202 454Q186 465 180 477T177 502Q180 525 187 545T201 584Q207 607 221 626T252 664Q251 668 258 669T276 674Q287 675 289 674T299 667Q301 660 298 655T289 641Q277 622 262 594T241 551Q241 547 240 544Q257
547 275 532Q294 514 288 496T255 459Q237 448 229 448T202 454Z" />
<glyph unicode="&#x2019;" horiz-adv-x="117" d="M215 445Q205 444 202 445T192 452Q191 459 194 465T202 478Q214 498 229 525T250 568Q250 572 251 575Q234 572 216 587Q197 605 203 623T236 660Q254 671 262 672T289 665Q306 655 312 643T314 617Q311 594 304
574T290 535Q284 513 270 494T239 455Q240 451 233 450T215 445Z" />
<glyph unicode="&#x201a;" horiz-adv-x="117" d="M41 -102Q31 -103 28 -102T18 -95Q17 -88 20 -82T28 -69Q40 -49 55 -22T76 21Q76 25 77 28Q60 25 42 40Q23 58 29 76T62 113Q80 124 88 125T115 118Q132 108 138 96T140 70Q137 47 130 27T116 -12Q110 -34 96 -53T65
-92Q66 -96 59 -97T41 -102Z" />
<glyph unicode="&#x201c;" horiz-adv-x="267" d="M361 454Q345 465 339 477T336 502Q339 525 346 545T360 584Q366 607 380 626T411 664Q410 668 417 669T435 674Q446 675 448 674T458 667Q460 660 457 655T448 641Q436 622 421 594T400 551Q400 547 399 544Q416
547 434 532Q453 514 447 496T414 459Q396 448 388 448T361 454ZM211 454Q195 465 189 477T186 502Q189 525 196 545T210 584Q216 607 230 626T261 664Q260 668 267 669T285 674Q296 675 298 674T308 667Q310 660 307 655T298 641Q286 622 271 594T250 551Q250
547 249 544Q266 547 284 532Q303 514 297 496T264 459Q246 448 238 448T211 454Z" />
<glyph unicode="&#x201d;" horiz-adv-x="267" d="M220 448Q210 447 207 448T197 455Q196 462 199 468T207 481Q219 501 234 528T255 571Q255 575 256 578Q239 575 221 590Q202 608 208 626T241 663Q259 674 267 675T294 668Q311 658 317 646T319 620Q316 597 309
577T295 538Q289 516 275 497T244 458Q245 454 238 453T220 448ZM370 448Q360 447 357 448T347 455Q346 462 349 468T357 481Q369 501 384 528T405 571Q405 575 406 578Q389 575 371 590Q352 608 358 626T391 663Q409 674 417 675T444 668Q461 658 467 646T469
620Q466 597 459 577T445 538Q439 516 425 497T394 458Q395 454 388 453T370 448Z" />
<glyph unicode="&#x201e;" horiz-adv-x="267" d="M51 -102Q41 -103 38 -102T28 -95Q27 -88 30 -82T38 -69Q50 -49 65 -22T86 21Q86 25 87 28Q70 25 52 40Q33 58 39 76T72 113Q90 124 98 125T125 118Q142 108 148 96T150 70Q147 47 140 27T126 -12Q120 -34 106
-53T75 -92Q76 -96 69 -97T51 -102ZM201 -102Q191 -103 188 -102T178 -95Q177 -88 180 -82T188 -69Q200 -49 215 -22T236 21Q236 25 237 28Q220 25 202 40Q183 58 189 76T222 113Q240 124 248 125T275 118Q292 108 298 96T300 70Q297 47 290 27T276 -12Q270 -34
256 -53T225 -92Q226 -96 219 -97T201 -102Z" />
<glyph unicode="&#x2022;" horiz-adv-x="187" d="M155 234Q150 239 149 251T147 274T149 289Q154 306 167 328T195 361Q209 368 231 363T264 343Q270 315 265 291T233 239Q221 224 201 223T155 234Z" />
<glyph unicode="&#x2039;" horiz-adv-x="446" d="M406 2Q398 1 379 1T328 16Q292 35 275 44T242 72Q208 92 190 113T154 165L130 207L123 237Q131 239 142 248T154 258Q163 269 175 281T208 311T264 360Q301 387 314 401T338 425Q344 432 352 439T364 447Q370
449 373 448T381 444Q392 437 402 436T414 427Q414 427 412 419T402 405Q389 394 374 383T337 353T275 299Q251 278 234 262T209 232T202 205Q208 192 226 170T275 121T353 69Q378 57 395 43T417 18T406 2Z" />
<glyph unicode="&#x203a;" horiz-adv-x="446" d="M236 0Q230 -2 227 -1T219 3Q209 11 199 11T186 20Q186 20 188 28T198 42Q212 54 226 65T264 95T325 148Q360 180 380 201T398 242Q389 262 353 300T247 378Q223 390 205 404T183 429T194 445Q202 446 221 446T272
431Q308 412 325 403T358 375Q392 356 411 334T446 282L470 240L477 210Q472 209 465 204T453 195T446 189Q437 178 425 166T392 136T336 87Q299 60 286 46T262 22Q256 15 249 8T236 0Z" />
</font>
</defs>
</svg>
